+ ตอบกลับกระทู้
สรุปผลการค้นหา 1 ถึง 4 จากทั้งหมด 4
  1. #1
    Administrators รูปส่วนตัว Duckload.us
    สมัครเมื่อ
    Dec 2010
    โพสต์
    112,806
    Thanks
    7
    Thanked 118,668 Times in 53,694 Posts

    Question [Singapore]-Pop Aye (2017) ป๊อปอาย มายเฟรนด์ - [พากย์ไทย] [บรรยายอังกฤษ] 1080p.AMZN.WEB-DL.DD+5.1.H264.SUB-EN



    ป๊อปอาย มายเฟรนด์ ภาพยนตร์ที่ได้รับรางวัลจากเทศกาลหนังนานาชาติ ผลงานเรื่องยาวชิ้นแรกของเคิร์สเทน ธาน ผู้กำกับชาวสิงคโปร์

    ธนา (ธเนศ วรากุลนุเคราะห์) สถาปนิกวัยกลางคนที่แต่งงานกับ โบ (เพ็ญภักตร์ ศิริกุล) กำลังไม่สมหวังทั้งในเรื่องงานและครอบครัว วันหนึ่งขณะที่กำลังเดินเตร็ดเตร่อยู่ในกรุงเทพฯ เขาบังเอิญพบกับ “ป๊อปอาย” ช้างเพื่อนยากในวัยเด็กของเขา ธนาตัดสินใจพาช้างตัวนี้กลับไปที่หมู่บ้านในต่างจังห วัด ที่ที่ทั้งตัวเขาและป๊อบอายเติบโตมาด้วยกันในความดูแ ลของลุงพีค (ณรงค์ พงษ์ภาพ) การเดินทางกลับบ้านเกิดของสหายทั้งสองจึงเริ่มต้นขึ้ นผ่านชนบทของประเทศไทย โดยมีจุดหมายคือบ้านเกิดของพวกเขาในจังหวัดเลยของภาค อีสาน



    Duration : 1 h 41 min
    Overall bit rate mode : Variable
    Overall bit rate : 13.5 Mb/s
    Encoded date : UTC 2020-02-14 08:37:07
    Writing application : mkvmerge v43.0.0 ('The Quartermaster') 64-bit
    Writing library : libebml v1.3.10 + libmatroska v1.5.2
    Cover : Yes
    Attachments : cover

    Video
    ID : 1
    Format : AVC
    Format/Info : Advanced Video Codec
    Format profile : [email protected]
    Format settings : CABAC / 4 Ref Frames
    Format settings, CABAC : Yes
    Format settings, Reference : 4 frames
    Codec ID : V_MPEG4/ISO/AVC
    Duration : 1 h 41 min
    Bit rate mode : Variable
    Bit rate : 12.8 Mb/s
    Maximum bit rate : 15.0 Mb/s
    Width : 1 920 pixels
    Height : 800 pixels
    Display aspect ratio : 2.40:1
    Frame rate mode : Constant
    Frame rate : 24.000 FPS
    Color space : YUV
    Chroma subsampling : 4:2:0
    Bit depth : 8 bits
    Scan type : Progressive
    Bits/(Pixel*Frame) : 0.348
    Stream size : 9.14 GiB (95%)
    Default : Yes
    Forced : No
    Color range : Limited
    Color primaries : BT.709
    Transfer characteristics : BT.709
    Matrix coefficients : BT.709

    Audio
    ID : 2
    Format : E-AC-3
    Format/Info : Enhanced AC-3
    Commercial name : Dolby Digital Plus
    Codec ID : A_EAC3
    Duration : 1 h 41 min
    Bit rate mode : Constant
    Bit rate : 640 kb/s
    Channel(s) : 6 channels
    Channel layout : L R C LFE Ls Rs
    Sampling rate : 48.0 kHz
    Frame rate : 31.250 FPS (1536 SPF)
    Compression mode : Lossy
    Stream size : 467 MiB (5%)
    Language : Thai
    Service kind : Complete Main
    Default : Yes
    Forced : No

    Text #1
    ID : 3
    Format : PGS
    Muxing mode : zlib
    Codec ID : S_HDMV/PGS
    Codec ID/Info : Picture based subtitle format used on BDs/HD-DVDs
    Duration : 1 h 37 min
    Bit rate : 5 286 b/s
    Count of elements : 460
    Stream size : 3.70 MiB (0%)
    Title : Gray
    Language : English
    Default : Yes
    Forced : No

    Text #2
    ID : 4
    Format : PGS
    Muxing mode : zlib
    Codec ID : S_HDMV/PGS
    Codec ID/Info : Picture based subtitle format used on BDs/HD-DVDs
    Duration : 1 h 37 min
    Bit rate : 5 286 b/s
    Count of elements : 460
    Stream size : 3.70 MiB (0%)
    Language : English
    Default : No
    Forced : No





    9.6 GB
    Download: cornfile
    http://cornfile.com/0awlwf45tav4
    Download: mekafile
    Pop.Aye.2017.1080p.AMZN.WEB-DL.DD+5.1.H264.SUB-EN.part1.rar
    http://www.mekafile.com/dl.php?f=Zsa6fec5pBYT
    Pop.Aye.2017.1080p.AMZN.WEB-DL.DD+5.1.H264.SUB-EN.part2.rar
    http://www.mekafile.com/dl.php?f=T18ba2c5pCBo
    Pop.Aye.2017.1080p.AMZN.WEB-DL.DD+5.1.H264.SUB-EN.part3.rar
    http://www.mekafile.com/dl.php?f=kM5e20c5pCLy
    Pop.Aye.2017.1080p.AMZN.WEB-DL.DD+5.1.H264.SUB-EN.part4.rar
    http://www.mekafile.com/dl.php?f=nY8003c5pDe7
    Pop.Aye.2017.1080p.AMZN.WEB-DL.DD+5.1.H264.SUB-EN.part5.rar
    http://www.mekafile.com/dl.php?f=f27790c5pElF
    Pop.Aye.2017.1080p.AMZN.WEB-DL.DD+5.1.H264.SUB-EN.part6.rar
    http://www.mekafile.com/dl.php?f=uY16cec5pEKo

  2. The Following 3 Users Say Thank You to Duckload.us For This Useful Post:

    jackjangri (02-22-2020), smakha (02-18-2020), Tatum03 (02-17-2020)

  3. #2
    Senior Member
    สมัครเมื่อ
    Oct 2013
    ที่อยู่
    Thailand
    โพสต์
    1,292
    Thanks
    1,163
    Thanked 0 Times in 0 Posts
    ขอบคุณมาก

  4. #3
    Senior Member
    สมัครเมื่อ
    Jun 2014
    โพสต์
    3,105
    Thanks
    0
    Thanked 0 Times in 0 Posts
    ขอบคุณครับ

  5. #4
    Senior Member
    สมัครเมื่อ
    Jul 2013
    โพสต์
    327
    Thanks
    0
    Thanked 0 Times in 0 Posts
    ขอบคุณครับผม

+ ตอบกลับกระทู้

ข้อมูลกระทู้

Users Browsing this Thread

ในขณะนี้มี 1 ท่านดูกระทู้อยู่. (0 สมาชิกและ 1 ผู้เยี่ยมชม)

     

กฎการโพสต์ข้อความ

  • ท่าน ไม่สามารถ ตั้งกระทู้ใหม่ได้
  • ท่าน ไม่สามารถ ตอบกระทู้ได้
  • ท่าน ไม่สามารถ แนบไฟล์ได้
  • ท่าน ไม่สามารถ แก้ไขข้อความโพสต์ได้
  • BB code สถานะ เปิด
  • Smilies สถานะ เปิด
  • [IMG] สถานะ เปิด
  • HTML สถานะ ปิด