+ ตอบกลับกระทู้
สรุปผลการค้นหา 1 ถึง 3 จากทั้งหมด 3
  1. #1
    Administrators รูปส่วนตัว Duckload.us
    สมัครเมื่อ
    Dec 2010
    โพสต์
    112,788
    Thanks
    7
    Thanked 118,649 Times in 53,690 Posts

    Question [ฝรั่ง]-Jojo Rabbit (2019) - [Soundtrack บรรยายไทยมาสเตอร์+อังกฤษ] 1080p.BluRay.x264.DTS-HD.MA.5.1



    Jojo Rabbit ดัดแปลงจากนิยายชื่อ Caging Skies ของคริสติน ลูเนนส์ มีฉากหลังอยู่ในช่วงสงครามโลกครั้งที่สอง เล่าเรื่องราวของ โจโจ้ (รับบทโดย โรมัน กริฟฟิน เดวิส) เด็กชายชาวเยอรมันที่มีเพื่อนในจินตนาการเป็น อดอล์ฟ ฮิตเลอร์ (รับบทโดย ไทก้า ไวทีที) ทว่ามุมมองที่มีต่อโลกของเขากลับตาลปัตรเมื่อพบว่าแม ่ของเขา (รับบทโดย สการ์เล็ตต์ โจแฮนสัน) ได้ซ่อนเด็กสาวชาวยิว (รับบทโดย โธมาซิน แม็คเคนซี่) ไว้ในห้องใต้หลังคา นั่นทำให้เขาต้องเผชิญหน้ากับความชาตินิยมอันไร้เดีย งสาของตัวเขาเอง



    Duration : 1 h 48 min
    Overall bit rate mode : Variable
    Overall bit rate : 12.7 Mb/s
    Encoded date : UTC 2020-02-19 17:36:39
    Writing application : mkvmerge v43.0.0 ('The Quartermaster') 64-bit
    Writing library : libebml v1.3.10 + libmatroska v1.5.2
    Cover : Yes
    Attachments : cover

    Video
    ID : 1
    Format : AVC
    Format/Info : Advanced Video Codec
    Format profile : [email protected]
    Format settings : CABAC / 4 Ref Frames
    Format settings, CABAC : Yes
    Format settings, Reference : 4 frames
    Codec ID : V_MPEG4/ISO/AVC
    Duration : 1 h 48 min
    Bit rate : 8 603 kb/s
    Width : 1 920 pixels
    Height : 1 040 pixels
    Display aspect ratio : 1.85:1
    Frame rate mode : Constant
    Frame rate : 23.976 (24000/1001) FPS
    Color space : YUV
    Chroma subsampling : 4:2:0
    Bit depth : 8 bits
    Scan type : Progressive
    Bits/(Pixel*Frame) : 0.180
    Stream size : 6.51 GiB (68%)
    Writing library : x264 core 159 r2991 1771b55
    Encoding settings : cabac=1 / ref=4 / deblock=1:-3:-3 / analyse=0x3:0x133 / me=umh / subme=7 / psy=1 / psy_rd=1.00:0.00 / mixed_ref=1 / me_range=16 / chroma_me=1 / trellis=2 / 8x8dct=1 / cqm=0 / deadzone=21,11 / fast_pskip=1 / chroma_qp_offset=-2 / threads=16 / lookahead_threads=2 / sliced_threads=0 / nr=0 / decimate=1 / interlaced=0 / bluray_compat=0 / constrained_intra=0 / bframes=3 / b_pyramid=2 / b_adapt=2 / b_bias=0 / direct=3 / weightb=1 / open_gop=0 / weightp=2 / keyint=250 / keyint_min=23 / scenecut=40 / intra_refresh=0 / rc_lookahead=50 / rc=2pass / mbtree=1 / bitrate=8603 / ratetol=1.0 / qcomp=0.60 / qpmin=0 / qpmax=69 / qpstep=4 / cplxblur=20.0 / qblur=0.5 / ip_ratio=1.40 / aq=1:1.00
    Language : English
    Default : Yes
    Forced : No
    Color range : Limited
    Matrix coefficients : BT.709

    Audio #1
    ID : 2
    Format : DTS XLL
    Format/Info : Digital Theater Systems
    Commercial name : DTS-HD Master Audio
    Codec ID : A_DTS
    Duration : 1 h 48 min
    Bit rate mode : Variable
    Bit rate : 3 341 kb/s
    Channel(s) : 6 channels
    Channel layout : C L R Ls Rs LFE
    Sampling rate : 48.0 kHz
    Frame rate : 93.750 FPS (512 SPF)
    Bit depth : 24 bits
    Compression mode : Lossless
    Stream size : 2.53 GiB (26%)
    Language : English
    Default : No
    Forced : No

    Audio #2
    ID : 3
    Format : AC-3
    Format/Info : Audio Coding 3
    Commercial name : Dolby Digital
    Codec ID : A_AC3
    Duration : 1 h 48 min
    Bit rate mode : Constant
    Bit rate : 640 kb/s
    Channel(s) : 6 channels
    Channel layout : L R C LFE Ls Rs
    Sampling rate : 48.0 kHz
    Frame rate : 31.250 FPS (1536 SPF)
    Compression mode : Lossy
    Stream size : 496 MiB (5%)
    Language : English
    Service kind : Complete Main
    Default : Yes
    Forced : No

    Text #1
    ID : 4
    Format : PGS
    Muxing mode : zlib
    Codec ID : S_HDMV/PGS
    Codec ID/Info : Picture based subtitle format used on BDs/HD-DVDs
    Duration : 1 h 48 min
    Bit rate : 40.7 kb/s
    Count of elements : 3588
    Stream size : 31.5 MiB (0%)
    Title : PGS Original
    Language : English
    Default : No
    Forced : No

    Text #2
    ID : 5
    Format : PGS
    Muxing mode : zlib
    Codec ID : S_HDMV/PGS
    Codec ID/Info : Picture based subtitle format used on BDs/HD-DVDs
    Duration : 1 h 45 min
    Bit rate : 60.7 kb/s
    Count of elements : 3266
    Stream size : 45.8 MiB (0%)
    Title : Gray
    Language : English
    Default : No
    Forced : No

    Text #3
    ID : 6
    Format : PGS
    Muxing mode : zlib
    Codec ID : S_HDMV/PGS
    Codec ID/Info : Picture based subtitle format used on BDs/HD-DVDs
    Duration : 1 h 45 min
    Bit rate : 60.7 kb/s
    Count of elements : 3266
    Stream size : 45.8 MiB (0%)
    Title : White
    Language : English
    Default : No
    Forced : No

    Text #4
    ID : 7
    Format : PGS
    Muxing mode : zlib
    Codec ID : S_HDMV/PGS
    Codec ID/Info : Picture based subtitle format used on BDs/HD-DVDs
    Duration : 1 h 45 min
    Bit rate : 60.7 kb/s
    Count of elements : 3266
    Stream size : 45.8 MiB (0%)
    Title : Yellow
    Language : English
    Default : No
    Forced : No

    Text #5
    ID : 8
    Format : PGS
    Muxing mode : zlib
    Codec ID : S_HDMV/PGS
    Codec ID/Info : Picture based subtitle format used on BDs/HD-DVDs
    Duration : 1 h 47 min
    Bit rate : 42.6 kb/s
    Count of elements : 2920
    Stream size : 32.8 MiB (0%)
    Title : Gray
    Language : Thai
    Default : No
    Forced : No

    Text #6
    ID : 9
    Format : PGS
    Muxing mode : zlib
    Codec ID : S_HDMV/PGS
    Codec ID/Info : Picture based subtitle format used on BDs/HD-DVDs
    Duration : 1 h 47 min
    Bit rate : 42.6 kb/s
    Count of elements : 2920
    Stream size : 32.8 MiB (0%)
    Title : White
    Language : Thai
    Default : Yes
    Forced : No

    Text #7
    ID : 10
    Format : PGS
    Muxing mode : zlib
    Codec ID : S_HDMV/PGS
    Codec ID/Info : Picture based subtitle format used on BDs/HD-DVDs
    Duration : 1 h 47 min
    Bit rate : 42.6 kb/s
    Count of elements : 2920
    Stream size : 32.8 MiB (0%)
    Title : Yzellow
    Language : Thai
    Default : No
    Forced : No





    Download: cornfile
    13.4 GB http://cornfile.com/xx5131vhbvrv
    9.6 GB http://cornfile.com/xjlosr8xnz28
    4.9 GB http://cornfile.com/md58yedjk7xc
    2.8 GB http://cornfile.com/5uh5f682rha8
    Download: mekafile
    9.6 GB http://www.mekafile.com/dl.php?f=16f1a6c5zlB9
    4.9 GB http://www.mekafile.com/dl.php?f=y03c89c5zoPk
    2.8 GB http://www.mekafile.com/dl.php?f=7g450ac5zq7g
    13.4 GB http://www.mekafile.com/dl.php?f=5ra7c7c5zELN

  2. The Following 4 Users Say Thank You to Duckload.us For This Useful Post:

    jangska (03-05-2020), kappa (03-08-2020), noi54 (02-21-2020), Tatum03 (02-20-2020)

  3. #2
    Senior Member
    สมัครเมื่อ
    Jun 2014
    โพสต์
    3,094
    Thanks
    0
    Thanked 0 Times in 0 Posts
    ขอบคุณครับ

  4. #3
    Senior Member
    สมัครเมื่อ
    Oct 2013
    ที่อยู่
    Thailand
    โพสต์
    1,290
    Thanks
    1,161
    Thanked 0 Times in 0 Posts
    ขอบคุณมาก

+ ตอบกลับกระทู้

ข้อมูลกระทู้

Users Browsing this Thread

ในขณะนี้มี 1 ท่านดูกระทู้อยู่. (0 สมาชิกและ 1 ผู้เยี่ยมชม)

     

กฎการโพสต์ข้อความ

  • ท่าน ไม่สามารถ ตั้งกระทู้ใหม่ได้
  • ท่าน ไม่สามารถ ตอบกระทู้ได้
  • ท่าน ไม่สามารถ แนบไฟล์ได้
  • ท่าน ไม่สามารถ แก้ไขข้อความโพสต์ได้
  • BB code สถานะ เปิด
  • Smilies สถานะ เปิด
  • [IMG] สถานะ เปิด
  • HTML สถานะ ปิด