+ ตอบกลับกระทู้
สรุปผลการค้นหา 1 ถึง 5 จากทั้งหมด 5
  1. #1
    Administrators รูปส่วนตัว Duckload.us
    สมัครเมื่อ
    Dec 2010
    โพสต์
    112,787
    Thanks
    7
    Thanked 118,648 Times in 53,690 Posts

    Question (ฝรั่ง.ใหม่.ไทยมาสเตอร์)-21 Bridges (2019) เผด็จศึกยึดนิวยอร์ก-[BluRay.1080p][ Sound:Eng 5.1/Thai AC3 2.0:Master][ SUB:Eng.PGS]




    เมื่อเกิดเหตุฆาตกรรมตำรวจขึ้นโดยคนร้ายสองคน อังเดร มีเวลา 24 ชั่วโมง เพื่อตามล่าคนร้ายในคดีอุกฉกรรจ์นี้ และการที่จะไม่ให้ผู้ร้ายหลบหนีไปได้ อังเดรสั่งการปิดเกาะแมนฮัตตันลงทั้งเกาะซึ่งรวมไปถึ งสะพาน 21 จุด แม่น้ำ 3 สาย อุโมงค์ อีก 4 จุด และหยุดขบวนรถทุกประเภทเข้าออกจากเกาะ แล้วส่งนายตำรวจเข้าไปปฏิบัติการไล่ล่าความเดือดระอุ ครั้งนี้

    Format : Matroska
    Format version : Version 4
    File size : 3.70 GiB
    Duration : 1 h 39 min
    Overall bit rate : 5 302 kb/s
    Movie name : 21.Bridges.2019.1080p.BluRay.H264._©GOLD CUP™

    Video
    ID : 1
    Format : AVC
    Format/Info : Advanced Video Codec
    Format profile : [email protected]
    Format settings : CABAC / 1 Ref Frames
    Format settings, CABAC : Yes
    Format settings, Reference : 1 frame
    Format settings, GOP : M=1, N=25
    Codec ID : V_MPEG4/ISO/AVC
    Duration : 1 h 39 min
    Bit rate mode : Constant
    Bit rate : 4 000 kb/s
    Width : 1 920 pixels
    Height : 808 pixels
    Display aspect ratio : 2.40:1
    Frame rate mode : Constant
    Frame rate : 29.970 (30000/1001) FPS
    Color space : YUV
    Chroma subsampling : 4:2:0
    Bit depth : 8 bits
    Scan type : Progressive
    Bits/(Pixel*Frame) : 0.086
    Stream size : 2.79 GiB (75%)
    Title : 21.Bridges.2019.1080p.BluRay.H264._©GOLD CUP™
    Language : English
    Default : Yes
    Forced : No

    Audio #1
    ID : 4
    Format : AC-3
    Format/Info : Audio Coding 3
    Commercial name : Dolby Digital
    Codec ID : A_AC3
    Duration : 1 h 39 min
    Bit rate mode : Constant
    Bit rate : 640 kb/s
    Channel(s) : 2 channels
    Channel layout : L R
    Sampling rate : 44.1 kHz
    Frame rate : 28.711 FPS (1536 SPF)
    Compression mode : Lossy
    Stream size : 458 MiB (12%)
    Title : 2.0 AC3 TH 640k 457m_©GOLD CUP™
    Language : Thai
    Service kind : Complete Main
    Default : Yes
    Forced : No

    Audio #2
    ID : 5
    Format : AC-3
    Format/Info : Audio Coding 3
    Commercial name : Dolby Digital
    Codec ID : A_AC3
    Duration : 1 h 39 min
    Bit rate mode : Constant
    Bit rate : 640 kb/s
    Channel(s) : 6 channels
    Channel layout : L R C LFE Ls Rs
    Sampling rate : 44.1 kHz
    Frame rate : 28.711 FPS (1536 SPF)
    Compression mode : Lossy
    Stream size : 458 MiB (12%)
    Title : 5.1 AC3 EN 640k 457m_©GOLD CUP™
    Language : English
    Service kind : Complete Main
    Default : No
    Forced : No

    Text #1
    ID : 2
    Format : PGS
    Muxing mode : zlib
    Codec ID : S_HDMV/PGS
    Codec ID/Info : Picture based subtitle format used on BDs/HD-DVDs
    Duration : 1 h 30 min
    Bit rate : 19.2 kb/s
    Count of elements : 2236
    Stream size : 12.4 MiB (0%)
    Title : EN.PGS.White.72-47-10_©GOLD CUP™
    Language : English
    Default : Yes
    Forced : No

    Text #2
    ID : 3
    Format : PGS
    Muxing mode : zlib
    Codec ID : S_HDMV/PGS
    Codec ID/Info : Picture based subtitle format used on BDs/HD-DVDs
    Duration : 1 h 31 min
    Bit rate : 21.4 kb/s
    Count of elements : 2502
    Stream size : 14.0 MiB (0%)
    Title : EN.SDH.PGS.Perperl.72-47-10_©GOLD CUP™
    Language : English
    Default : No
    Forced : No





    Download: cornfile
    http://cornfile.com/ncptu669nm1l
    Download: mekafile
    http://www.mekafile.com/dl.php?f=gF1d31c5zfcp

  2. The Following 6 Users Say Thank You to Duckload.us For This Useful Post:

    bigbang06 (02-20-2020), chirt (02-20-2020), jackjangri (02-22-2020), jangska (02-21-2020), noi54 (02-21-2020), spiderpud2 (02-23-2020)

  3. #2
    Member รูปส่วนตัว Krek
    สมัครเมื่อ
    Dec 2019
    โพสต์
    38
    Thanks
    0
    Thanked 0 Times in 0 Posts
    ขอบคุณครับ

  4. #3
    Senior Member
    สมัครเมื่อ
    Jun 2014
    โพสต์
    3,094
    Thanks
    0
    Thanked 0 Times in 0 Posts
    ขอบคุณครับ

  5. #4
    Senior Member
    สมัครเมื่อ
    Oct 2013
    ที่อยู่
    Thailand
    โพสต์
    1,290
    Thanks
    1,161
    Thanked 0 Times in 0 Posts
    ขอบคุณมาก

  6. #5
    Senior Member
    สมัครเมื่อ
    Jul 2013
    โพสต์
    327
    Thanks
    0
    Thanked 0 Times in 0 Posts
    ขอบคุณครับ

+ ตอบกลับกระทู้

ข้อมูลกระทู้

Users Browsing this Thread

ในขณะนี้มี 1 ท่านดูกระทู้อยู่. (0 สมาชิกและ 1 ผู้เยี่ยมชม)

     

กฎการโพสต์ข้อความ

  • ท่าน ไม่สามารถ ตั้งกระทู้ใหม่ได้
  • ท่าน ไม่สามารถ ตอบกระทู้ได้
  • ท่าน ไม่สามารถ แนบไฟล์ได้
  • ท่าน ไม่สามารถ แก้ไขข้อความโพสต์ได้
  • BB code สถานะ เปิด
  • Smilies สถานะ เปิด
  • [IMG] สถานะ เปิด
  • HTML สถานะ ปิด