+ ตอบกลับกระทู้
สรุปผลการค้นหา 1 ถึง 3 จากทั้งหมด 3
  1. #1
    Administrators รูปส่วนตัว Duckload.us
    สมัครเมื่อ
    Dec 2010
    โพสต์
    112,845
    Thanks
    7
    Thanked 118,736 Times in 53,714 Posts

    Question [ฝรั่ง]-Lucy in the Sky (2019) - [Soundtrack บรรยายไทยมาสเตอร์+อังกฤษ] 1080p.AMZN.WEB-DL.DDP5.1.H.264



    “ขึ้นไปอยู่บนนั้น เราได้เห็นจักรวาลทั้งหมด แต่ทุกอย่างที่นี่ดูเล็กมาก” เป็นคำพูดตัวละครของนาตาลี พอร์ตแมน ในหนัง Lucy in the Sky

    ลูซี่นักบินอวกาศที่ได้รับโอกาสขึ้นไปข้างบนเพื่องาน ทางวิทยาศาสตร์อยู่ระยะหนึ่ง นั่นทำให้เธอได้เห็นจักรวาลและความเป็นจริงๆ บางอย่างที่หลายคนไม่อาจเข้าใจได้ และเมื่อถึงเวลาที่ต้องกลับบ้าน มันทำให้เธอกลับคิดว่าโลกนั้นเล็กเกินไป และเธอกำลังจะสูญเสียการยอมรับความจริงไปทีละน้อย ลูซีจะทำอย่างไร และคนรอบช้างจะรับมือกับสถานการณ์นี้แบบไหน


    Duration : 2 h 5 min
    Overall bit rate : 7 544 kb/s
    Encoded date : UTC 2020-02-19 02:38:53
    Writing application : mkvmerge v43.0.0 ('The Quartermaster') 64-bit
    Writing library : libebml v1.3.10 + libmatroska v1.5.2
    Cover : Yes
    Attachments : cover

    Video
    ID : 1
    Format : AVC
    Format/Info : Advanced Video Codec
    Format profile : [email protected]
    Format settings : CABAC / 4 Ref Frames
    Format settings, CABAC : Yes
    Format settings, Reference : 4 frames
    Codec ID : V_MPEG4/ISO/AVC
    Duration : 2 h 5 min
    Bit rate mode : Constant
    Bit rate : 6 775 kb/s
    Nominal bit rate : 10 000 kb/s
    Width : 1 920 pixels
    Height : 1 040 pixels
    Display aspect ratio : 1.85:1
    Frame rate mode : Constant
    Frame rate : 23.976 (24000/1001) FPS
    Color space : YUV
    Chroma subsampling : 4:2:0
    Bit depth : 8 bits
    Scan type : Progressive
    Bits/(Pixel*Frame) : 0.142
    Stream size : 5.92 GiB (90%)
    Language : English
    Default : Yes
    Forced : No
    Color range : Limited
    Color primaries : BT.709
    Transfer characteristics : BT.709
    Matrix coefficients : BT.709

    Audio
    ID : 2
    Format : E-AC-3
    Format/Info : Enhanced AC-3
    Commercial name : Dolby Digital Plus
    Codec ID : A_EAC3
    Duration : 2 h 5 min
    Bit rate mode : Constant
    Bit rate : 640 kb/s
    Channel(s) : 6 channels
    Channel layout : L R C LFE Ls Rs
    Sampling rate : 48.0 kHz
    Frame rate : 31.250 FPS (1536 SPF)
    Compression mode : Lossy
    Stream size : 572 MiB (8%)
    Language : English
    Service kind : Complete Main
    Default : Yes
    Forced : No

    Text #1
    ID : 3
    Format : VobSub
    Muxing mode : zlib
    Codec ID : S_VOBSUB
    Codec ID/Info : Picture based subtitle format used on DVDs
    Duration : 2 h 0 min
    Bit rate : 9 580 b/s
    Count of elements : 1605
    Stream size : 8.24 MiB (0%)
    Language : English
    Default : No
    Forced : No

    Text #2
    ID : 4
    Format : UTF-8
    Codec ID : S_TEXT/UTF8
    Codec ID/Info : UTF-8 Plain Text
    Duration : 2 h 0 min
    Bit rate : 55 b/s
    Count of elements : 1605
    Stream size : 48.6 KiB (0%)
    Language : English
    Default : No
    Forced : No

    Text #3
    ID : 5
    Format : PGS
    Muxing mode : zlib
    Codec ID : S_HDMV/PGS
    Codec ID/Info : Picture based subtitle format used on BDs/HD-DVDs
    Duration : 2 h 0 min
    Bit rate : 54.1 kb/s
    Count of elements : 3210
    Stream size : 46.5 MiB (1%)
    Title : Gray
    Language : English
    Default : No
    Forced : No

    Text #4
    ID : 6
    Format : PGS
    Muxing mode : zlib
    Codec ID : S_HDMV/PGS
    Codec ID/Info : Picture based subtitle format used on BDs/HD-DVDs
    Duration : 2 h 0 min
    Bit rate : 54.1 kb/s
    Count of elements : 3210
    Stream size : 46.5 MiB (1%)
    Title : White
    Language : English
    Default : No
    Forced : No

    Text #5
    ID : 7
    Format : PGS
    Muxing mode : zlib
    Codec ID : S_HDMV/PGS
    Codec ID/Info : Picture based subtitle format used on BDs/HD-DVDs
    Duration : 2 h 0 min
    Bit rate : 54.1 kb/s
    Count of elements : 3210
    Stream size : 46.5 MiB (1%)
    Title : Yellow
    Language : English
    Default : No
    Forced : No

    Text #6
    ID : 8
    Format : VobSub
    Muxing mode : zlib
    Codec ID : S_VOBSUB
    Codec ID/Info : Picture based subtitle format used on DVDs
    Duration : 2 h 4 min
    Bit rate : 7 624 b/s
    Count of elements : 1428
    Stream size : 6.80 MiB (0%)
    Language : Thai
    Default : No
    Forced : No

    Text #7
    ID : 9
    Format : UTF-8
    Codec ID : S_TEXT/UTF8
    Codec ID/Info : UTF-8 Plain Text
    Duration : 2 h 4 min
    Bit rate : 100 b/s
    Count of elements : 1428
    Stream size : 92.1 KiB (0%)
    Language : Thai
    Default : No
    Forced : No

    Text #8
    ID : 10
    Format : PGS
    Muxing mode : zlib
    Codec ID : S_HDMV/PGS
    Codec ID/Info : Picture based subtitle format used on BDs/HD-DVDs
    Duration : 2 h 4 min
    Bit rate : 36.2 kb/s
    Count of elements : 2856
    Stream size : 32.3 MiB (0%)
    Title : Gray
    Language : Thai
    Default : No
    Forced : No

    Text #9
    ID : 11
    Format : PGS
    Muxing mode : zlib
    Codec ID : S_HDMV/PGS
    Codec ID/Info : Picture based subtitle format used on BDs/HD-DVDs
    Duration : 2 h 4 min
    Bit rate : 36.2 kb/s
    Count of elements : 2856
    Stream size : 32.3 MiB (0%)
    Title : White
    Language : Thai
    Default : Yes
    Forced : No

    Text #10
    ID : 12
    Format : PGS
    Muxing mode : zlib
    Codec ID : S_HDMV/PGS
    Codec ID/Info : Picture based subtitle format used on BDs/HD-DVDs
    Duration : 2 h 4 min
    Bit rate : 36.2 kb/s
    Count of elements : 2856
    Stream size : 32.3 MiB (0%)
    Title : Yellow
    Language : Thai
    Default : No
    Forced : No





    Download: cornfile
    http://cornfile.com/8g1yyxs8z8wd
    Download: mekafile
    http://www.mekafile.com/dl.php?f=JG960fc5zvhG

  2. The Following 3 Users Say Thank You to Duckload.us For This Useful Post:

    amorn wichian (02-21-2020), noi54 (02-21-2020), Tatum03 (02-20-2020)

  3. #2
    Senior Member
    สมัครเมื่อ
    Jun 2014
    โพสต์
    3,121
    Thanks
    0
    Thanked 0 Times in 0 Posts
    ขอบคุณครับ

  4. #3
    Senior Member
    สมัครเมื่อ
    Oct 2013
    ที่อยู่
    Thailand
    โพสต์
    1,294
    Thanks
    1,165
    Thanked 0 Times in 0 Posts
    ขอบคุณมาก

+ ตอบกลับกระทู้

ข้อมูลกระทู้

Users Browsing this Thread

ในขณะนี้มี 1 ท่านดูกระทู้อยู่. (0 สมาชิกและ 1 ผู้เยี่ยมชม)

     

กฎการโพสต์ข้อความ

  • ท่าน ไม่สามารถ ตั้งกระทู้ใหม่ได้
  • ท่าน ไม่สามารถ ตอบกระทู้ได้
  • ท่าน ไม่สามารถ แนบไฟล์ได้
  • ท่าน ไม่สามารถ แก้ไขข้อความโพสต์ได้
  • BB code สถานะ เปิด
  • Smilies สถานะ เปิด
  • [IMG] สถานะ เปิด
  • HTML สถานะ ปิด