+ ͺѺз
ػšä 1 ֧ 2 ҡ 2
  1. #1
    Administrators ٻǹ Duckload.us
    Ѥ
    Dec 2010
    ʵ
    112,789
    Thanks
    7
    Thanked 118,649 Times in 53,690 Posts

    Question (..)- BLACK AND BLUE (2019) ͹ ԡἹѺ ѺǨ-[BluRay.1080p][ Sound:Eng 5.1/Thai AC3 2.0:Master][ SUB:Eng/Thai.PGS]



    ˹ѧ礪蹷ǡѺǨ˹ (Naomie Harris) ѺǦҵüʾԴ˹ ѧҡҺҡæҵԴ鹨ҡǨبԵ ͡Ѻؤ˹觤ҡͧͷԹժ (Tyrese Gibson) 㹢з;ź˹Ҫҡ÷駤 еǨѧз Ҿ١

    Format : Matroska
    Format version : Version 4
    File size : 3.86 GiB
    Duration : 1 h 47 min
    Overall bit rate : 5 113 kb/s
    Movie name : Black.and.Blue.2019.1080p.BluRay.H264._©GOLD CUP™
    Encoded date : UTC 2020-02-20 17:08:56
    Writing application : mkvmerge v43.0.0 ('The Quartermaster') 64-bit
    Writing library : libebml v1.3.10 + libmatroska v1.5.2
    Cover : Yes
    Attachments : cover.jpg

    Video
    ID : 1
    Format : AVC
    Format/Info : Advanced Video Codec
    Format profile : [email protected]
    Format settings : CABAC / 1 Ref Frames
    Format settings, CABAC : Yes
    Format settings, Reference frames : 1 frame
    Format settings, GOP : M=1, N=25
    Codec ID : V_MPEG4/ISO/AVC
    Duration : 1 h 47 min
    Bit rate mode : Constant
    Bit rate : 3 800 kb/s
    Width : 1 920 pixels
    Height : 808 pixels
    Display aspect ratio : 2.40:1
    Frame rate mode : Constant
    Frame rate : 29.970 (30000/1001) FPS
    Color space : YUV
    Chroma subsampling : 4:2:0
    Bit depth : 8 bits
    Scan type : Progressive
    Bits/(Pixel*Frame) : 0.082
    Stream size : 2.86 GiB (74%)
    Title : Black.and.Blue.2019.1080p.BluRay.H264._©GOLD CUP™
    Language : English
    Default : Yes
    Forced : No

    Audio #1
    ID : 2
    Format : AC-3
    Format/Info : Audio Coding 3
    Commercial name : Dolby Digital
    Codec ID : A_AC3
    Duration : 1 h 47 min
    Bit rate mode : Constant
    Bit rate : 640 kb/s
    Channel(s) : 2 channels
    Channel layout : L R
    Sampling rate : 44.1 kHz
    Frame rate : 28.711 FPS (1536 SPF)
    Bit depth : 16 bits
    Compression mode : Lossy
    Stream size : 494 MiB (13%)
    Title : 2.0 AC3 Th 640k 494m_©GOLD CUP™
    Language : Thai
    Service kind : Complete Main
    Default : Yes
    Forced : No

    Audio #2
    ID : 3
    Format : AC-3
    Format/Info : Audio Coding 3
    Commercial name : Dolby Digital
    Codec ID : A_AC3
    Duration : 1 h 47 min
    Bit rate mode : Constant
    Bit rate : 640 kb/s
    Channel(s) : 6 channels
    Channel layout : L R C LFE Ls Rs
    Sampling rate : 44.1 kHz
    Frame rate : 28.711 FPS (1536 SPF)
    Bit depth : 16 bits
    Compression mode : Lossy
    Stream size : 494 MiB (13%)
    Title : 5.1 AC3 En 640k 494m_©GOLD CUP™
    Language : English
    Service kind : Complete Main
    Default : No
    Forced : No

    Text #1
    ID : 4
    Format : PGS
    Muxing mode : zlib
    Codec ID : S_HDMV/PGS
    Codec ID/Info : Picture based subtitle format used on BDs/HD-DVDs
    Duration : 1 h 47 min
    Bit rate : 16.4 kb/s
    Count of elements : 2530
    Stream size : 12.7 MiB (0%)
    Title : Th.PGS.White.65-62-10_©GOLD CUP™
    Language : Thai
    Default : Yes
    Forced : No

    Text #2
    ID : 5
    Format : PGS
    Muxing mode : zlib
    Codec ID : S_HDMV/PGS
    Codec ID/Info : Picture based subtitle format used on BDs/HD-DVDs
    Duration : 1 h 43 min
    Bit rate : 18.3 kb/s
    Count of elements : 2910
    Stream size : 13.6 MiB (0%)
    Title : En.PGS.Gray.72-47-10_©GOLD CUP™
    Language : English
    Default : No
    Forced : No

    Text #3
    ID : 6
    Format : PGS
    Muxing mode : zlib
    Codec ID : S_HDMV/PGS
    Codec ID/Info : Picture based subtitle format used on BDs/HD-DVDs
    Duration : 1 h 45 min
    Bit rate : 22.2 kb/s
    Count of elements : 3034
    Stream size : 16.7 MiB (0%)
    Title : En.SDH.PGS.Perple.72-47-10_©GOLD CUP™
    Language : English
    Default : No
    Forced : No






    Download: cornfile
    http://cornfile.com/rbd4fw0z7f1e
    Download: mekafile
    http://www.mekafile.com/dl.php?f=lMf683c5zi2S

  2. The Following 3 Users Say Thank You to Duckload.us For This Useful Post:

    bigbang06 (02-21-2020), smakha (02-24-2020), spiderpud2 (02-23-2020)

  3. #2
    Senior Member
    Ѥ
    Jul 2013
    ʵ
    327
    Thanks
    0
    Thanked 0 Times in 0 Posts
    ͺسѺ

šз

Users Browsing this Thread

㹢й 1 ҹ١з. (0 Ҫԡ 1 )

     

ʵͤ

  • ҹ ö 駡з
  • ҹ ö ͺз
  • ҹ ö
  • ҹ ö 䢢ͤʵ