+ ตอบกลับกระทู้
สรุปผลการค้นหา 1 ถึง 4 จากทั้งหมด 4
  1. #1
    Administrators รูปส่วนตัว Duckload.us
    สมัครเมื่อ
    Dec 2010
    โพสต์
    112,787
    Thanks
    7
    Thanked 118,648 Times in 53,690 Posts

    Question [ฝรั่ง] • [*ใหม่*] Simpson Presents Sound & Fury (2019) ซาวด์แอนด์ฟิวรี โดย สเตอร์จิลล์ ซิมป์สัน • [เสียงอังกฤษ 5.1] • [บรรยายไทย + 30 ภาษา] • [From Netflix Master 1080p]



    เรื่องย่อ

    ในอัลบั้มภาพอนิเมชั่นสุดเจ๋งนี้ นักซิ่งปริศนาออกเดินทางไปยังดินแดนที่เป็นดั่งนรกบน ดินหลังเกิดสงครามทำลายล้าง เพื่อเปิดฉากต่อสู้กับ 2 ศัตรูผู้โหดเหี้ยมเป็นครั้งสุดท้าย



    Code:
    Format                                   : Matroska
    Format version                           : Version 4
    File size                                : 2.31 GiB
    Duration                                 : 41 min 47 s
    Overall bit rate mode                    : Variable
    Overall bit rate                         : 7 924 kb/s
    Encoded date                             : UTC 2019-09-27 07:11:28
    Writing application                      : mkvmerge v21.0.0 ('Tardigrades Will Inherit The Earth') 64-bit
    Writing library                          : libebml v1.3.5 + libmatroska v1.4.8
    
    Video
    ID                                       : 1
    Format                                   : AVC
    Format/Info                              : Advanced Video Codec
    Format profile                           : [email protected]
    Format settings                          : CABAC / 3 Ref Frames
    Format settings, CABAC                   : Yes
    Format settings, Reference frames        : 3 frames
    Codec ID                                 : V_MPEG4/ISO/AVC
    Duration                                 : 41 min 47 s
    Bit rate mode                            : Variable
    Bit rate                                 : 7 500 kb/s
    Maximum bit rate                         : 11.2 Mb/s
    Width                                    : 1 920 pixels
    Height                                   : 1 080 pixels
    Display aspect ratio                     : 16:9
    Frame rate mode                          : Constant
    Frame rate                               : 24.000 FPS
    Color space                              : YUV
    Chroma subsampling                       : 4:2:0
    Bit depth                                : 8 bits
    Scan type                                : Progressive
    Bits/(Pixel*Frame)                       : 0.151
    Stream size                              : 2.18 GiB (94%)
    Writing library                          : x264 core 148 r2715 7e75228
    Encoding settings                        : cabac=1 / ref=3 / deblock=1:0:0 / analyse=0x1:0x111 / me=umh / subme=10 / psy=1 / psy_rd=1.00:0.00 / mixed_ref=1 / me_range=24 / chroma_me=1 / trellis=2 / 8x8dct=0 / cqm=0 / deadzone=21,11 / fast_pskip=1 / chroma_qp_offset=-2 / threads=8 / lookahead_threads=1 / sliced_threads=0 / nr=0 / decimate=1 / interlaced=0 / bluray_compat=0 / stitchable=1 / constrained_intra=0 / bframes=2 / b_pyramid=0 / b_adapt=2 / b_bias=0 / direct=3 / weightb=1 / open_gop=0 / weightp=2 / keyint=250 / keyint_min=24 / scenecut=0 / intra_refresh=0 / rc_lookahead=48 / rc=2pass / mbtree=1 / bitrate=7500 / ratetol=1.0 / qcomp=0.50 / qpmin=6 / qpmax=51 / qpstep=4 / cplxblur=20.0 / qblur=0.5 / vbv_maxrate=11250 / vbv_bufsize=15000 / nal_hrd=vbr / filler=0 / ip_ratio=1.40 / aq=1:1.00
    Default                                  : Yes
    Forced                                   : No
    
    Audio
    ID                                       : 2
    Format                                   : E-AC-3
    Format/Info                              : Enhanced AC-3
    Commercial name                          : Dolby Digital Plus
    Codec ID                                 : A_EAC3
    Duration                                 : 41 min 47 s
    Bit rate mode                            : Constant
    Bit rate                                 : 448 kb/s
    Channel(s)                               : 6 channels
    Channel layout                           : L R C LFE Ls Rs
    Sampling rate                            : 48.0 kHz
    Frame rate                               : 31.250 FPS (1536 SPF)
    Compression mode                         : Lossy
    Stream size                              : 134 MiB (6%)
    Title                                    : English
    Language                                 : English
    Service kind                             : Complete Main
    Default                                  : Yes
    Forced                                   : No
    
    Text #1
    ID                                       : 3
    Format                                   : UTF-8
    Codec ID                                 : S_TEXT/UTF8
    Codec ID/Info                            : UTF-8 Plain Text
    Duration                                 : 40 min 45 s
    Bit rate                                 : 46 b/s
    Count of elements                        : 246
    Stream size                              : 13.8 KiB (0%)
    Language                                 : English
    Default                                  : No
    Forced                                   : No
    
    Text #2
    ID                                       : 4
    Format                                   : UTF-8
    Codec ID                                 : S_TEXT/UTF8
    Codec ID/Info                            : UTF-8 Plain Text
    Duration                                 : 40 min 45 s
    Bit rate                                 : 48 b/s
    Count of elements                        : 261
    Stream size                              : 14.5 KiB (0%)
    Title                                    : SDH
    Language                                 : English
    Default                                  : No
    Forced                                   : No
    
    Text #3
    ID                                       : 5
    Format                                   : UTF-8
    Codec ID                                 : S_TEXT/UTF8
    Codec ID/Info                            : UTF-8 Plain Text
    Duration                                 : 41 min 32 s
    Bit rate                                 : 3 b/s
    Count of elements                        : 33
    Stream size                              : 1.17 KiB (0%)
    Language                                 : Arabic
    Default                                  : No
    Forced                                   : No
    
    Text #4
    ID                                       : 6
    Format                                   : UTF-8
    Codec ID                                 : S_TEXT/UTF8
    Codec ID/Info                            : UTF-8 Plain Text
    Duration                                 : 41 min 32 s
    Bit rate                                 : 1 b/s
    Count of elements                        : 27
    Stream size                              : 620 Bytes (0%)
    Language                                 : Czech
    Default                                  : No
    Forced                                   : No
    
    Text #5
    ID                                       : 7
    Format                                   : UTF-8
    Codec ID                                 : S_TEXT/UTF8
    Codec ID/Info                            : UTF-8 Plain Text
    Duration                                 : 41 min 32 s
    Bit rate                                 : 1 b/s
    Count of elements                        : 27
    Stream size                              : 550 Bytes (0%)
    Language                                 : Danish
    Default                                  : No
    Forced                                   : No
    
    Text #6
    ID                                       : 8
    Format                                   : UTF-8
    Codec ID                                 : S_TEXT/UTF8
    Codec ID/Info                            : UTF-8 Plain Text
    Duration                                 : 41 min 32 s
    Bit rate                                 : 1 b/s
    Count of elements                        : 20
    Stream size                              : 514 Bytes (0%)
    Language                                 : German
    Default                                  : No
    Forced                                   : No
    
    Text #7
    ID                                       : 9
    Format                                   : UTF-8
    Codec ID                                 : S_TEXT/UTF8
    Codec ID/Info                            : UTF-8 Plain Text
    Duration                                 : 41 min 32 s
    Bit rate                                 : 3 b/s
    Count of elements                        : 28
    Stream size                              : 1.11 KiB (0%)
    Language                                 : Greek
    Default                                  : No
    Forced                                   : No
    
    Text #8
    ID                                       : 10
    Format                                   : UTF-8
    Codec ID                                 : S_TEXT/UTF8
    Codec ID/Info                            : UTF-8 Plain Text
    Duration                                 : 41 min 32 s
    Bit rate                                 : 1 b/s
    Count of elements                        : 26
    Stream size                              : 609 Bytes (0%)
    Language                                 : Spanish
    Default                                  : No
    Forced                                   : No
    
    Text #9
    ID                                       : 11
    Format                                   : UTF-8
    Codec ID                                 : S_TEXT/UTF8
    Codec ID/Info                            : UTF-8 Plain Text
    Duration                                 : 41 min 32 s
    Bit rate                                 : 1 b/s
    Count of elements                        : 26
    Stream size                              : 620 Bytes (0%)
    Title                                    : European
    Language                                 : Spanish
    Default                                  : No
    Forced                                   : No
    
    Text #10
    ID                                       : 12
    Format                                   : UTF-8
    Codec ID                                 : S_TEXT/UTF8
    Codec ID/Info                            : UTF-8 Plain Text
    Duration                                 : 41 min 32 s
    Bit rate                                 : 1 b/s
    Count of elements                        : 24
    Stream size                              : 554 Bytes (0%)
    Language                                 : Finnish
    Default                                  : No
    Forced                                   : No
    
    Text #11
    ID                                       : 13
    Format                                   : UTF-8
    Codec ID                                 : S_TEXT/UTF8
    Codec ID/Info                            : UTF-8 Plain Text
    Duration                                 : 41 min 32 s
    Bit rate                                 : 1 b/s
    Count of elements                        : 18
    Stream size                              : 492 Bytes (0%)
    Language                                 : French
    Default                                  : No
    Forced                                   : No
    
    Text #12
    ID                                       : 14
    Format                                   : UTF-8
    Codec ID                                 : S_TEXT/UTF8
    Codec ID/Info                            : UTF-8 Plain Text
    Duration                                 : 41 min 32 s
    Bit rate                                 : 3 b/s
    Count of elements                        : 33
    Stream size                              : 1.21 KiB (0%)
    Language                                 : Hebrew
    Default                                  : No
    Forced                                   : No
    
    Text #13
    ID                                       : 15
    Format                                   : UTF-8
    Codec ID                                 : S_TEXT/UTF8
    Codec ID/Info                            : UTF-8 Plain Text
    Duration                                 : 41 min 32 s
    Bit rate                                 : 4 b/s
    Count of elements                        : 33
    Stream size                              : 1.49 KiB (0%)
    Language                                 : Hindi
    Default                                  : No
    Forced                                   : No
    
    Text #14
    ID                                       : 16
    Format                                   : UTF-8
    Codec ID                                 : S_TEXT/UTF8
    Codec ID/Info                            : UTF-8 Plain Text
    Duration                                 : 41 min 32 s
    Bit rate                                 : 2 b/s
    Count of elements                        : 28
    Stream size                              : 644 Bytes (0%)
    Language                                 : Hungarian
    Default                                  : No
    Forced                                   : No
    
    Text #15
    ID                                       : 17
    Format                                   : UTF-8
    Codec ID                                 : S_TEXT/UTF8
    Codec ID/Info                            : UTF-8 Plain Text
    Duration                                 : 41 min 32 s
    Bit rate                                 : 2 b/s
    Count of elements                        : 28
    Stream size                              : 633 Bytes (0%)
    Language                                 : Indonesian
    Default                                  : No
    Forced                                   : No
    
    Text #16
    ID                                       : 18
    Format                                   : UTF-8
    Codec ID                                 : S_TEXT/UTF8
    Codec ID/Info                            : UTF-8 Plain Text
    Duration                                 : 41 min 32 s
    Bit rate                                 : 1 b/s
    Count of elements                        : 23
    Stream size                              : 506 Bytes (0%)
    Language                                 : Italian
    Default                                  : No
    Forced                                   : No
    
    Text #17
    ID                                       : 19
    Format                                   : UTF-8
    Codec ID                                 : S_TEXT/UTF8
    Codec ID/Info                            : UTF-8 Plain Text
    Duration                                 : 41 min 32 s
    Bit rate                                 : 2 b/s
    Count of elements                        : 28
    Stream size                              : 816 Bytes (0%)
    Language                                 : Japanese
    Default                                  : No
    Forced                                   : No
    
    Text #18
    ID                                       : 20
    Format                                   : UTF-8
    Codec ID                                 : S_TEXT/UTF8
    Codec ID/Info                            : UTF-8 Plain Text
    Duration                                 : 41 min 32 s
    Bit rate                                 : 2 b/s
    Count of elements                        : 31
    Stream size                              : 856 Bytes (0%)
    Language                                 : Korean
    Default                                  : No
    Forced                                   : No
    
    Text #19
    ID                                       : 21
    Format                                   : UTF-8
    Codec ID                                 : S_TEXT/UTF8
    Codec ID/Info                            : UTF-8 Plain Text
    Duration                                 : 41 min 32 s
    Bit rate                                 : 1 b/s
    Count of elements                        : 25
    Stream size                              : 523 Bytes (0%)
    Language                                 : Norwegian Bokmal
    Default                                  : No
    Forced                                   : No
    
    Text #20
    ID                                       : 22
    Format                                   : UTF-8
    Codec ID                                 : S_TEXT/UTF8
    Codec ID/Info                            : UTF-8 Plain Text
    Duration                                 : 41 min 32 s
    Bit rate                                 : 1 b/s
    Count of elements                        : 23
    Stream size                              : 534 Bytes (0%)
    Language                                 : Dutch
    Default                                  : No
    Forced                                   : No
    
    Text #21
    ID                                       : 23
    Format                                   : UTF-8
    Codec ID                                 : S_TEXT/UTF8
    Codec ID/Info                            : UTF-8 Plain Text
    Duration                                 : 41 min 32 s
    Bit rate                                 : 1 b/s
    Count of elements                        : 21
    Stream size                              : 529 Bytes (0%)
    Language                                 : Polish
    Default                                  : No
    Forced                                   : No
    
    Text #22
    ID                                       : 24
    Format                                   : UTF-8
    Codec ID                                 : S_TEXT/UTF8
    Codec ID/Info                            : UTF-8 Plain Text
    Duration                                 : 41 min 32 s
    Bit rate                                 : 1 b/s
    Count of elements                        : 25
    Stream size                              : 541 Bytes (0%)
    Language                                 : Portuguese
    Default                                  : No
    Forced                                   : No
    
    Text #23
    ID                                       : 25
    Format                                   : UTF-8
    Codec ID                                 : S_TEXT/UTF8
    Codec ID/Info                            : UTF-8 Plain Text
    Duration                                 : 41 min 32 s
    Bit rate                                 : 1 b/s
    Count of elements                        : 25
    Stream size                              : 583 Bytes (0%)
    Title                                    : Brazilian
    Language                                 : Portuguese
    Default                                  : No
    Forced                                   : No
    
    Text #24
    ID                                       : 26
    Format                                   : UTF-8
    Codec ID                                 : S_TEXT/UTF8
    Codec ID/Info                            : UTF-8 Plain Text
    Duration                                 : 41 min 32 s
    Bit rate                                 : 2 b/s
    Count of elements                        : 26
    Stream size                              : 731 Bytes (0%)
    Language                                 : Romanian
    Default                                  : No
    Forced                                   : No
    
    Text #25
    ID                                       : 27
    Format                                   : UTF-8
    Codec ID                                 : S_TEXT/UTF8
    Codec ID/Info                            : UTF-8 Plain Text
    Duration                                 : 41 min 32 s
    Bit rate                                 : 3 b/s
    Count of elements                        : 33
    Stream size                              : 1.02 KiB (0%)
    Language                                 : Russian
    Default                                  : No
    Forced                                   : No
    
    Text #26
    ID                                       : 28
    Format                                   : UTF-8
    Codec ID                                 : S_TEXT/UTF8
    Codec ID/Info                            : UTF-8 Plain Text
    Duration                                 : 41 min 32 s
    Bit rate                                 : 1 b/s
    Count of elements                        : 24
    Stream size                              : 531 Bytes (0%)
    Language                                 : Swedish
    Default                                  : No
    Forced                                   : No
    
    Text #27
    ID                                       : 29
    Format                                   : UTF-8
    Codec ID                                 : S_TEXT/UTF8
    Codec ID/Info                            : UTF-8 Plain Text
    Duration                                 : 41 min 32 s
    Bit rate                                 : 5 b/s
    Count of elements                        : 33
    Stream size                              : 1.65 KiB (0%)
    Language                                 : Thai
    Default                                  : No
    Forced                                   : No
    
    Text #28
    ID                                       : 30
    Format                                   : UTF-8
    Codec ID                                 : S_TEXT/UTF8
    Codec ID/Info                            : UTF-8 Plain Text
    Duration                                 : 41 min 32 s
    Bit rate                                 : 1 b/s
    Count of elements                        : 27
    Stream size                              : 614 Bytes (0%)
    Language                                 : Turkish
    Default                                  : No
    Forced                                   : No
    
    Text #29
    ID                                       : 31
    Format                                   : UTF-8
    Codec ID                                 : S_TEXT/UTF8
    Codec ID/Info                            : UTF-8 Plain Text
    Duration                                 : 41 min 32 s
    Bit rate                                 : 2 b/s
    Count of elements                        : 25
    Stream size                              : 899 Bytes (0%)
    Language                                 : Vietnamese
    Default                                  : No
    Forced                                   : No
    
    Text #30
    ID                                       : 32
    Format                                   : UTF-8
    Codec ID                                 : S_TEXT/UTF8
    Codec ID/Info                            : UTF-8 Plain Text
    Duration                                 : 41 min 32 s
    Bit rate                                 : 2 b/s
    Count of elements                        : 31
    Stream size                              : 787 Bytes (0%)
    Title                                    : Simplified
    Language                                 : Chinese
    Default                                  : No
    Forced                                   : No
    
    Text #31
    ID                                       : 33
    Format                                   : UTF-8
    Codec ID                                 : S_TEXT/UTF8
    Codec ID/Info                            : UTF-8 Plain Text
    Duration                                 : 41 min 32 s
    Bit rate                                 : 2 b/s
    Count of elements                        : 31
    Stream size                              : 786 Bytes (0%)
    Title                                    : Traditional
    Language                                 : Chinese
    Default                                  : No
    Forced                                   : No




    Download: cornfile
    http://cornfile.com/kverfypxt0ew
    Download: mekafile
    http://www.mekafile.com/dl.php?f=RJ99a5c5zDyW

  2. The Following User Says Thank You to Duckload.us For This Useful Post:

    gaszolineskywalker (03-28-2020)

  3. #2
    Senior Member
    สมัครเมื่อ
    Jun 2014
    โพสต์
    3,094
    Thanks
    0
    Thanked 0 Times in 0 Posts
    ขอบคุณครับ

  4. #3
    Senior Member
    สมัครเมื่อ
    Jul 2013
    โพสต์
    327
    Thanks
    0
    Thanked 0 Times in 0 Posts
    ชอบมากๆภาพสวย

  5. #4
    Senior Member
    สมัครเมื่อ
    Oct 2012
    โพสต์
    938
    Thanks
    1,876
    Thanked 0 Times in 0 Posts
    ขอบคุณครับ

+ ตอบกลับกระทู้

ข้อมูลกระทู้

Users Browsing this Thread

ในขณะนี้มี 1 ท่านดูกระทู้อยู่. (0 สมาชิกและ 1 ผู้เยี่ยมชม)

     

กฎการโพสต์ข้อความ

  • ท่าน ไม่สามารถ ตั้งกระทู้ใหม่ได้
  • ท่าน ไม่สามารถ ตอบกระทู้ได้
  • ท่าน ไม่สามารถ แนบไฟล์ได้
  • ท่าน ไม่สามารถ แก้ไขข้อความโพสต์ได้
  • BB code สถานะ เปิด
  • Smilies สถานะ เปิด
  • [IMG] สถานะ เปิด
  • HTML สถานะ ปิด