+ ตอบกลับกระทู้
สรุปผลการค้นหา 1 ถึง 2 จากทั้งหมด 2
  1. #1
    Administrators รูปส่วนตัว Duckload.us
    สมัครเมื่อ
    Dec 2010
    โพสต์
    112,845
    Thanks
    7
    Thanked 118,731 Times in 53,713 Posts

    Question [NETFLIX] The Last Thing He Wanted (2020) คำสั่งตาย -WEB-DL.AC-3.1080p. [Modified]-[Soundtrack บรรยายไทย]



    คำสั่งตาย (The Last Thing He Wanted)
    "คำสั่งตาย (THE LAST THING HE WANTED)" ดัดแปลงมาจากนวนิยายชื่อเดียวกันของโจน ดิเดียน ซึ่งดำเนินเรื่องท่ามกลางความวุ่นวายกรณีอื้อฉาวอิหร ่าน-คอนทรา เมื่อนักข่าวฝีมือดีคนหนึ่งในดี.ซี. ชื่อเอเลน่า แม็กแมน (เจ้าของรางวัลออสการ์ แอนน์ แฮทธาเวย์) ทิ้งงานติดตามการเดินทางรณรงค์หาเสียงเลือกตั้งในปี 1984 เพราะรู้สึกว่าเธอต้องทำหน้าที่เพื่อพ่อคือดิ๊ก แม็กเแมน (วิลเลม ดาโฟ เจ้าของรางวัลออสการ์) ด้วยความรู้สึกผิด เอเลน่าเข้าไปช่วยทำสิ่งที่อันตรายและโง่เขลาให้พ่อ และพยายามใช้ช่วงเวลานั้นสืบหาความจริงอย่างหนึ่งด้ว ยตัวเอง แต่แล้วเธอกลับต้องไปพัวพันกับวงการที่เธอต้องการจะเ ปิดโปง ในภาพยนตร์ระทึกขวัญภาพสวยแนวการเมืองเรื่องนี้ คำตอบกลายเป็นคำถามและการเลี้ยวผิดทำให้ต้องเจอทางตั น และเอเลน่ายิ่งหลงทางและถลำลึกลงไปในแผนที่คนอื่นวาง ไว้ โดยโอกาสที่จะได้กลับบ้านและกลับมาเป็นตัวเองอีกครั้ งนั้นยิ่งค่อยๆ น้อยลงทุกขณะ ภาพยนตร์เรื่องนี้เป็นภาพยนตร์เรื่องที่ 4 ของผู้กำกับและนักเขียนบทที่ได้รับการเสนอชื่อเข้าชิ งรางวัลออสการ์ ดี รีส ("คนนอกคอก (Pariah)" "Bessie" "แผ่นดินเดียวกัน (Mudbound)") ร่วมแสดงโดยเบน แอฟเฟล็ค เจ้าของรางวัลออสการ์ โรซี เปเรซ ผู้ได้รับการเสนอชื่อเข้าชิงรางวัลออสการ์ เอดี้ กาเธจี้, เมล โรดริเกซ, โอนาทา เอพรีล และโทบี้ โจนส์ โดยมีมาร์โค วิลลาโลโบซเป็นผู้เขียนบท และแคสเซียน เอลเวสเป็นผู้สร้างร่วมกับดี รีส

    Format : Matroska
    Format version : Version 4
    File size : 4.03 GiB
    Duration : 1 h 55 min
    Overall bit rate mode : Variable
    Overall bit rate : 4 983 kb/s
    Encoded date : UTC 2020-02-21 12:56:53
    Writing application : mkvmerge v43.0.0 ('The Quartermaster') 64-bit
    Writing library : libebml v1.3.10 + libmatroska v1.5.2

    Video
    ID : 1
    Format : AVC
    Format/Info : Advanced Video Codec
    Format profile : [email protected]
    Format settings : CABAC / 1 Ref Frames
    Format settings, CABAC : Yes
    Format settings, Reference frames : 1 frame
    Codec ID : V_MPEG4/ISO/AVC
    Duration : 1 h 55 min
    Bit rate mode : Variable
    Bit rate : 4 286 kb/s
    Maximum bit rate : 12.8 Mb/s
    Width : 1 792 pixels
    Height : 1 080 pixels
    Display aspect ratio : 5:3
    Frame rate mode : Constant
    Frame rate : 24.000 FPS
    Color space : YUV
    Chroma subsampling : 4:2:0
    Bit depth : 8 bits
    Scan type : Progressive
    Bits/(Pixel*Frame) : 0.092
    Stream size : 3.46 GiB (86%)
    Language : English
    Default : Yes
    Forced : No

    Audio
    ID : 2
    Format : E-AC-3
    Format/Info : Enhanced AC-3
    Commercial name : Dolby Digital Plus
    Codec ID : A_EAC3
    Duration : 1 h 55 min
    Bit rate mode : Constant
    Bit rate : 640 kb/s
    Channel(s) : 6 channels
    Channel layout : L R C LFE Ls Rs
    Sampling rate : 48.0 kHz
    Frame rate : 31.250 FPS (1536 SPF)
    Compression mode : Lossy
    Stream size : 530 MiB (13%)
    Title : AC-3 English
    Language : English
    Service kind : Complete Main
    Default : Yes
    Forced : No

    Text #1
    ID : 3
    Format : VobSub
    Muxing mode : zlib
    Codec ID : S_VOBSUB
    Codec ID/Info : Picture based subtitle format used on DVDs
    Duration : 1 h 47 min
    Bit rate : 12.9 kb/s
    Count of elements : 1668
    Stream size : 9.97 MiB (0%)
    Title : Sub Thai 1080p
    Language : Thai
    Default : No
    Forced : No

    Text #2
    ID : 4
    Format : UTF-8
    Codec ID : S_TEXT/UTF8
    Codec ID/Info : UTF-8 Plain Text
    Duration : 1 h 47 min
    Bit rate : 144 b/s
    Count of elements : 1668
    Stream size : 114 KiB (0%)
    Title : Sub Thai SRT
    Language : Thai
    Default : No
    Forced : No

    Text #3
    ID : 5
    Format : PGS
    Muxing mode : zlib
    Codec ID : S_HDMV/PGS
    Codec ID/Info : Picture based subtitle format used on BDs/HD-DVDs
    Duration : 1 h 47 min
    Bit rate : 35.2 kb/s
    Count of elements : 3336
    Stream size : 27.2 MiB (1%)
    Title : Sub Thai PGS
    Language : Thai
    Default : Yes
    Forced : No

    Text #4
    ID : 6
    Format : VobSub
    Muxing mode : zlib
    Codec ID : S_VOBSUB
    Codec ID/Info : Picture based subtitle format used on DVDs
    Duration : 1 h 49 min
    Bit rate : 15.8 kb/s
    Count of elements : 1923
    Stream size : 12.4 MiB (0%)
    Title : Sub English 1080p
    Language : English
    Default : No
    Forced : No

    Text #5
    ID : 7
    Format : UTF-8
    Codec ID : S_TEXT/UTF8
    Codec ID/Info : UTF-8 Plain Text
    Duration : 1 h 49 min
    Bit rate : 82 b/s
    Count of elements : 1923
    Stream size : 66.2 KiB (0%)
    Title : Sub English SRT
    Language : English
    Default : No
    Forced : No

    Text #6
    ID : 8
    Format : PGS
    Muxing mode : zlib
    Codec ID : S_HDMV/PGS
    Codec ID/Info : Picture based subtitle format used on BDs/HD-DVDs
    Duration : 1 h 49 min
    Bit rate : 44.2 kb/s
    Count of elements : 3846
    Stream size : 34.7 MiB (1%)
    Title : Sub English PGS
    Language : English
    Default : No
    Forced : No





    4.0 GB
    http://cornfile.com/g0adf0qlydig
    http://www.mekafile.com/dl.php?f=cjce6cc5C2uC

    3.85 GB
    http://cornfile.com/l6wr9iv8dlma
    http://www.mekafile.com/dl.php?f=Cb1184c5C2pS

  2. The Following User Says Thank You to Duckload.us For This Useful Post:

    kappa (03-08-2020)

  3. #2
    Senior Member
    สมัครเมื่อ
    Jul 2013
    โพสต์
    332
    Thanks
    0
    Thanked 0 Times in 0 Posts
    ขอบคุณครับผม

+ ตอบกลับกระทู้

ข้อมูลกระทู้

Users Browsing this Thread

ในขณะนี้มี 1 ท่านดูกระทู้อยู่. (0 สมาชิกและ 1 ผู้เยี่ยมชม)

     

กฎการโพสต์ข้อความ

  • ท่าน ไม่สามารถ ตั้งกระทู้ใหม่ได้
  • ท่าน ไม่สามารถ ตอบกระทู้ได้
  • ท่าน ไม่สามารถ แนบไฟล์ได้
  • ท่าน ไม่สามารถ แก้ไขข้อความโพสต์ได้
  • BB code สถานะ เปิด
  • Smilies สถานะ เปิด
  • [IMG] สถานะ เปิด
  • HTML สถานะ ปิด