+ ตอบกลับกระทู้
สรุปผลการค้นหา 1 ถึง 4 จากทั้งหมด 4
  1. #1
    Administrators รูปส่วนตัว Duckload.us
    สมัครเมื่อ
    Dec 2010
    โพสต์
    112,787
    Thanks
    7
    Thanked 118,648 Times in 53,690 Posts

    Question (ฝรั่ง18+ไทยมาสเตอร์)-NIGHTMARE CINEMA (2019) โรงหนังแห่งฝันร้าย -[1080p.BR][Sound:Eng 5.1/Tha AC3 2.0][SUB:Eng.PGS]



    ณ โรงหนังลึกลับแห่งหนึ่ง โรงหนังแห่งนี้มี The Projectionist (รับบทโดย Mickey Rourke) นักฉายหนังลึกลับเป็นผู้จัดการ และมันก็พร้อมจะต้อนรับเหยื่อที่หลงเข้ามาด้วยการฉาย หนังสยองขวัญที่ถ่ายทอดความกลัวในใจของเหยื่อแต่ละคน
    โดยหนังจะแบ่งออกเป็น 5 ตอนสั้น ได้ Mick Garris (Sleepwalkers, The Shining miniseries), Joe Dante (Gremlins, The Howling), David Slade (30 Days of Night), Ryuhei Kitamura (Midnight Meat Train, Versus) และ Alejandro Brugues (Juan of the Dead) มาร่วมทารุณคุณจนตายคาเบาะ
    Alejandro Brugues มากับตอนแรกที่มีชื่อว่า The Thing in the Woods ล้อเลียนขนบของหนังไล่เชือด เมื่อหญิงสาวนางหนึ่งต้องหนีบางสิ่งในป่าซึ่งอาจเป็น มากกว่าฆาตกรสวมหน้ากากที่เธอเคยเห็นในหนังทั่วไป // Joe Dante มากับ Mirare หญิงสาวคนหนึ่งตัดสินใจเข้ารับการศัลยกรรมตามคำขอของ แฟนหนุ่ม เพื่อเสริมสร้างความสวย ก่อนจะค้นพบความจริงว่าปลายทางของการผ่าตัดครั้งนี้อ าจจบไม่สวยอย่างที่คิด // Ryuhei Kitamura พาคุณสู่ความบ้าคลั่งใน Mashit เมื่อโรงเรียนประจำแคทอลิกตกอยู่ใต้อำนาจชั่วร้ายของ ซาตาน มหกรรมการล้างบาปชนิดบรรลัยโคตรจึงเริ่มขึ้น // David Slade มากับตอนขาวดำสุดสะพรึง This Way to Egress หญิงสาวนางหนึ่งต้องทนทุกข์กับการเห็นนิมิตหลอนซ้อนท ับโลกความเป็นจริง เธอตัดสินใจไปหาจิตแพทย์ แต่เรื่องกลับคลี่คลายไปสู่ความจริงที่น่าตระหนกยิ่ง กว่า // ปิดท้ายกับ Dead งานของ Mick Garris ตอนที่ถือได้ว่าเป็นกุญแจสำคัญของเรื่องเล่าในโรงหนั งแห่งนี้ เรื่องราวว่าด้วยเด็กน้อยที่ฟื้นจากความตายราวปาฏิหา ริย์ และกลายเป็นเด็กเห็นผีที่สามารถสื่อสารกับความตายได้ !

    Format : Matroska
    Format version : Version 4
    File size : 3.99 GiB
    Duration : 1 h 59 min
    Overall bit rate : 4 789 kb/s
    Movie name : Nightmare.Cinema.2018.1080p.BluRay.H264._©GOL D CUP™
    Video
    ID : 1
    Format : AVC
    Format/Info : Advanced Video Codec
    Format profile : [email protected]
    Format settings : CABAC / 1 Ref Frames
    Format settings, CABAC : Yes
    Format settings, Reference : 1 frame
    Format settings, GOP : M=1, N=25
    Codec ID : V_MPEG4/ISO/AVC
    Duration : 1 h 59 min
    Bit rate mode : Constant
    Bit rate : 3 500 kb/s
    Width : 1 920 pixels
    Height : 1 040 pixels
    Display aspect ratio : 1.85:1
    Frame rate mode : Constant
    Frame rate : 29.970 (30000/1001) FPS
    Color space : YUV
    Chroma subsampling : 4:2:0
    Bit depth : 8 bits
    Scan type : Progressive
    Bits/(Pixel*Frame) : 0.058
    Stream size : 2.91 GiB (73%)
    Title : Nightmare.Cinema.2018.1080p.BluRay.H264._©GOL D CUP™
    Language : English
    Default : Yes
    Forced : No

    Audio #1
    ID : 2
    Format : AC-3
    Format/Info : Audio Coding 3
    Commercial name : Dolby Digital
    Codec ID : A_AC3
    Duration : 1 h 59 min
    Bit rate mode : Constant
    Bit rate : 640 kb/s
    Channel(s) : 2 channels
    Channel layout : L R
    Sampling rate : 44.1 kHz
    Frame rate : 28.711 FPS (1536 SPF)
    Compression mode : Lossy
    Stream size : 545 MiB (13%)
    Title : 2.0 AC3 Th 640k 545m_©GOLD CUP™
    Language : Thai
    Service kind : Complete Main
    Default : Yes
    Forced : No

    Audio #2
    ID : 3
    Format : AC-3
    Format/Info : Audio Coding 3
    Commercial name : Dolby Digital
    Codec ID : A_AC3
    Duration : 1 h 59 min
    Bit rate mode : Constant
    Bit rate : 640 kb/s
    Channel(s) : 6 channels
    Channel layout : L R C LFE Ls Rs
    Sampling rate : 44.1 kHz
    Frame rate : 28.711 FPS (1536 SPF)
    Compression mode : Lossy
    Stream size : 545 MiB (13%)
    Title : 5.1 AC3 En 640k 545m_©GOLD CUP™
    Language : English
    Service kind : Complete Main
    Default : No
    Forced : No

    Text #1
    ID : 4
    Format : PGS
    Muxing mode : zlib
    Codec ID : S_HDMV/PGS
    Codec ID/Info : Picture based subtitle format used on BDs/HD-DVDs
    Duration : 1 h 53 min
    Bit rate : 11.8 kb/s
    Count of elements : 2164
    Stream size : 9.61 MiB (0%)
    Title : EN.PGS.Blue.75-50-10_©GOLD CUP™
    Language : English
    Default : Yes
    Forced : No

    Text #2
    ID : 5
    Format : VobSub
    Muxing mode : zlib
    Codec ID : S_VOBSUB
    Codec ID/Info : Picture based subtitle format used on DVDs
    Duration : 1 h 58 min
    Bit rate : 4 699 b/s
    Count of elements : 1665
    Stream size : 3.97 MiB (0%)
    Title : En.SDH.White.Vob_©GOLD CUP™
    Language : English
    Default : No
    Forced : No





    Download: cornfile
    http://cornfile.com/52cqt9zsddj0
    Download: mekafile
    http://www.mekafile.com/dl.php?f=yh3270c5JU0Q

  2. The Following 5 Users Say Thank You to Duckload.us For This Useful Post:

    bigbang06 (02-25-2020), gozilla02 (02-25-2020), noi54 (02-29-2020), uanja (02-25-2020), Wesker_TOT (02-26-2020)

  3. #2
    Senior Member
    สมัครเมื่อ
    Jun 2014
    โพสต์
    3,094
    Thanks
    0
    Thanked 0 Times in 0 Posts
    ขอบคุณครับ

  4. #3
    Senior Member
    สมัครเมื่อ
    Dec 2013
    โพสต์
    2,036
    Thanks
    3,957
    Thanked 0 Times in 0 Posts
    ขอบคุณนะครับ...

  5. #4
    Senior Member
    สมัครเมื่อ
    Jul 2012
    โพสต์
    6,612
    Thanks
    0
    Thanked 0 Times in 0 Posts
    ขอบคุณมากจ้า

+ ตอบกลับกระทู้

ข้อมูลกระทู้

Users Browsing this Thread

ในขณะนี้มี 1 ท่านดูกระทู้อยู่. (0 สมาชิกและ 1 ผู้เยี่ยมชม)

     

กฎการโพสต์ข้อความ

  • ท่าน ไม่สามารถ ตั้งกระทู้ใหม่ได้
  • ท่าน ไม่สามารถ ตอบกระทู้ได้
  • ท่าน ไม่สามารถ แนบไฟล์ได้
  • ท่าน ไม่สามารถ แก้ไขข้อความโพสต์ได้
  • BB code สถานะ เปิด
  • Smilies สถานะ เปิด
  • [IMG] สถานะ เปิด
  • HTML สถานะ ปิด