+ ตอบกลับกระทู้
สรุปผลการค้นหา 1 ถึง 2 จากทั้งหมด 2
  1. #1
    Administrators รูปส่วนตัว Duckload.us
    สมัครเมื่อ
    Dec 2010
    โพสต์
    112,620
    Thanks
    7
    Thanked 118,498 Times in 53,644 Posts

    Question (2019 Netflix ซับไทย)__THE BODY : ศพที่หายไป__ [ Full HD1080p -> Mystery, Thriller <-]



    PLOT: ในภาพยนตร์ฮินดีที่หยิบต้นฉบับจากสเปนมาสร้างใหม่นี้ เจ้าหน้าที่สืบสวนทำคดีศพหญิงสาวหายไปจากห้องดับจิต แต่ยิ่งขุดก็ยิ่งติดกับปริศนาและสงครามจิตวิทยา


    Title: The Body(2019)
    PG Rating: R
    IMDB Rating: 5.7/10 from 741 users Updated : 2020-02-24
    Genres: Mystery , Thriller
    Actors: Emraan Hashmi, Rishi Kapoor, Sobhita Dhulipala
    Director: Jeethu Joseph
    IMDB Runtime: 101
    Year: 2019
    Video: MPEG4 Video (H264) 1920x1080 24fps [V: h264 high L4.0, yuv420p, 1920x1080 [default]]
    Audio: DD+ 48000Hz 6ch 640kbps [A: Hindi [hin] (eac3, 48000 Hz, 5.1, 640 kb/s) [default]]
    Subtitle: VobSub [S: Thai [tha] (vobsub) [default]]
    Subtitle: UTF-8 [S: No subtitles]

    Format : Matroska
    Format version : Version 4
    File size : 1.77 GiB
    Duration : 1 h 40 min
    Overall bit rate : 2 514 kb/s
    Encoded date : UTC 2020-02-25 09:13:10
    Writing application : mkvmerge v43.0.0 ('The Quartermaster') 64-bit
    Writing library : libebml v1.3.10 + libmatroska v1.5.2

    Video
    ID : 1
    Format : AVC
    Format/Info : Advanced Video Codec
    Format profile : [email protected]
    Format settings : CABAC / 3 Ref Frames
    Format settings, CABAC : Yes
    Format settings, Reference frames : 3 frames
    Codec ID : V_MPEG4/ISO/AVC
    Duration : 1 h 40 min
    Bit rate : 1 869 kb/s
    Width : 1 920 pixels
    Height : 1 080 pixels
    Display aspect ratio : 16:9
    Frame rate mode : Constant
    Frame rate : 24.000 FPS
    Color space : YUV
    Chroma subsampling : 4:2:0
    Bit depth : 8 bits
    Scan type : Progressive
    Bits/(Pixel*Frame) : 0.038
    Stream size : 1.31 GiB (74%)
    Default : Yes
    Forced : No

    Audio
    ID : 2
    Format : E-AC-3
    Format/Info : Enhanced AC-3
    Commercial name : Dolby Digital Plus
    Codec ID : A_EAC3
    Duration : 1 h 40 min
    Bit rate mode : Constant
    Bit rate : 640 kb/s
    Channel(s) : 6 channels
    Channel layout : L R C LFE Ls Rs
    Sampling rate : 48.0 kHz
    Frame rate : 31.250 FPS (1536 SPF)
    Compression mode : Lossy
    Stream size : 460 MiB (25%)
    Language : Hindi
    Service kind : Complete Main
    Default : Yes
    Forced : No

    Text
    ID : 3
    Format : VobSub
    Muxing mode : zlib
    Codec ID : S_VOBSUB
    Codec ID/Info : Picture based subtitle format used on DVDs
    Duration : 1 h 34 min
    Bit rate : 6 246 b/s
    Count of elements : 1086
    Stream size : 4.23 MiB (0%)
    Language : Thai
    Default : Yes
    Forced : No





    1.8 GB
    http://cornfile.com/w1216mgcrx1x
    http://www.mekafile.com/dl.php?f=2k4c28c5JTLW

    3.4 GB
    http://cornfile.com/52u5xqmj16xd
    http://www.mekafile.com/dl.php?f=ub0fe0c5M0mG

  2. #2
    Senior Member
    สมัครเมื่อ
    Jun 2014
    โพสต์
    3,048
    Thanks
    0
    Thanked 0 Times in 0 Posts
    ขอบคุณครับ

+ ตอบกลับกระทู้

ข้อมูลกระทู้

Users Browsing this Thread

ในขณะนี้มี 1 ท่านดูกระทู้อยู่. (0 สมาชิกและ 1 ผู้เยี่ยมชม)

     

กฎการโพสต์ข้อความ

  • ท่าน ไม่สามารถ ตั้งกระทู้ใหม่ได้
  • ท่าน ไม่สามารถ ตอบกระทู้ได้
  • ท่าน ไม่สามารถ แนบไฟล์ได้
  • ท่าน ไม่สามารถ แก้ไขข้อความโพสต์ได้
  • BB code สถานะ เปิด
  • Smilies สถานะ เปิด
  • [IMG] สถานะ เปิด
  • HTML สถานะ ปิด