+ ตอบกลับกระทู้
สรุปผลการค้นหา 1 ถึง 3 จากทั้งหมด 3
  1. #1
    Administrators รูปส่วนตัว Duckload.us
    สมัครเมื่อ
    Dec 2010
    โพสต์
    112,806
    Thanks
    7
    Thanked 118,668 Times in 53,694 Posts

    Question (ฝรั่ง.ไทยมาสเตอร์)-Allied (2016) สายลับพันธมิตร-[BluRay.1080p][ Sound:Eng DTS/Thai AC3 2.0:MASTER][SUB:Eng/Thai.PGS]



    สองสายลับ Marianne Beausjour (Marion Cotillard จาก The Dark Knight Rises, Inception) กับ Max Vatan (Brad Pitt จาก World War Z, Fight Club) พบรักกัน ขณะปฏิบัติภารกิจสังหารเจ้าหน้าที่ระดับสูงของเยอรมั นที่ Casablanca Max พา Marianne มาอยู่ที่ลอนดอน ทั้งสองแต่งงานกันและมีลูกสาวหนึ่งคน แต่แล้วไม่นาน Marianne ตกเป็นผู้ต้องสงสัยว่าเป็นสายลับนาซี ซึ่งหากเธอเป็นเช่นนั้นจริง Max ต้องลงมือกำจัดเธอด้วยมือตัวเองหรือมิเช่นนั้นก็กลาย เป็นกบฏทั้งคู่!!!

    Format : Matroska
    Format version : Version 4
    File size : 4.33 GiB
    Duration : 2 h 4 min
    Overall bit rate : 4 979 kb/s
    Movie name : Allied.2016.1080p.BluRay.dts._©GOLD CUP™
    Video
    ID : 1
    Format : AVC
    Format/Info : Advanced Video Codec
    Format profile : [email protected]
    Format settings : CABAC / 1 Ref Frames
    Format settings, CABAC : Yes
    Format settings, Reference : 1 frame
    Format settings, GOP : M=1, N=25
    Codec ID : V_MPEG4/ISO/AVC
    Duration : 2 h 4 min
    Bit rate mode : Constant
    Bit rate : 3 000 kb/s
    Width : 1 920 pixels
    Height : 800 pixels
    Display aspect ratio : 2.40:1
    Frame rate mode : Constant
    Frame rate : 29.970 (30000/1001) FPS
    Color space : YUV
    Chroma subsampling : 4:2:0
    Bit depth : 8 bits
    Scan type : Progressive
    Bits/(Pixel*Frame) : 0.065
    Stream size : 2.61 GiB (60%)
    Title : Allied.2016.1080p.BluRay.dts._©GOLD CUP™
    Language : English
    Default : Yes
    Forced : No

    Audio #1
    ID : 2
    Format : AC-3
    Format/Info : Audio Coding 3
    Commercial name : Dolby Digital
    Codec ID : A_AC3
    Duration : 2 h 4 min
    Bit rate mode : Constant
    Bit rate : 448 kb/s
    Channel(s) : 2 channels
    Channel layout : L R
    Sampling rate : 44.1 kHz
    Frame rate : 28.711 FPS (1536 SPF)
    Compression mode : Lossy
    Stream size : 399 MiB (9%)
    Title : 2.0 AC3 TH 448k 399m_©GOLD CUP™
    Language : Thai
    Service kind : Complete Main
    Default : Yes
    Forced : No

    Audio #2
    ID : 3
    Format : DTS
    Format/Info : Digital Theater Systems
    Codec ID : A_DTS
    Duration : 2 h 4 min
    Bit rate mode : Constant
    Bit rate : 1 509 kb/s
    Channel(s) : 6 channels
    Channel layout : C L R Ls Rs LFE
    Sampling rate : 48.0 kHz
    Frame rate : 93.750 FPS (512 SPF)
    Bit depth : 24 bits
    Compression mode : Lossy
    Stream size : 1.31 GiB (30%)
    Title : 5.1 dts En 1509k 1.31g_©GOLD CUP™
    Language : English
    Default : No
    Forced : No

    Text #1
    ID : 4
    Format : PGS
    Muxing mode : zlib
    Codec ID : S_HDMV/PGS
    Codec ID/Info : Picture based subtitle format used on BDs/HD-DVDs
    Duration : 1 h 56 min
    Bit rate : 11.6 kb/s
    Count of elements : 2090
    Stream size : 9.68 MiB (0%)
    Title : Th.PGS.White.70-67-20_©GOLD CUP™
    Language : Thai
    Default : Yes
    Forced : No

    Text #2
    ID : 5
    Format : PGS
    Muxing mode : zlib
    Codec ID : S_HDMV/PGS
    Codec ID/Info : Picture based subtitle format used on BDs/HD-DVDs
    Duration : 1 h 51 min
    Bit rate : 14.1 kb/s
    Count of elements : 2186
    Stream size : 11.3 MiB (0%)
    Title : EN- PGS.Oreang.75-50-10_©GOLD CUP™
    Language : English
    Default : No
    Forced : No

    Text #3
    ID : 6
    Format : PGS
    Muxing mode : zlib
    Codec ID : S_HDMV/PGS
    Codec ID/Info : Picture based subtitle format used on BDs/HD-DVDs
    Duration : 1 h 56 min
    Bit rate : 16.4 kb/s
    Count of elements : 2580
    Stream size : 13.6 MiB (0%)
    Title : EN-SDH PGS.yellow.75-50-10_©GOLD CUP™
    Language : English
    Default : No
    Forced : No

    Menu
    00:00:00.000 : en:00:00:00.000
    00:05:38.088 : en:00:05:38.088
    00:16:39.749 : en:00:16:39.749
    00:24:31.428 : en:00:24:31.428
    00:33:52.280 : en:00:33:52.280
    00:43:07.543 : en:00:43:07.543
    00:49:14.118 : en:00:49:14.118
    01:01:39.321 : en:01:01:39.321
    01:09:36.339 : en:01:09:36.339
    01:16:44.016 : en:01:16:44.016
    01:26:14.961 : en:01:26:14.961
    01:31:53.466 : en:01:31:53.466
    01:40:12.173 : en:01:40:12.173
    01:47:25.105 : en:01:47:25.105
    01:56:35.614 : en:01:56:35.614





    Download: cornfile
    http://cornfile.com/ifbflsa9q2z7
    Download: mekafile
    http://www.mekafile.com/dl.php?f=Tgbbc6c5LSVV

  2. The Following 5 Users Say Thank You to Duckload.us For This Useful Post:

    bigbang06 (02-26-2020), Jodz14 (02-29-2020), noi54 (02-26-2020), smakha (02-27-2020), Tatum03 (02-26-2020)

  3. #2
    Senior Member
    สมัครเมื่อ
    Oct 2013
    ที่อยู่
    Thailand
    โพสต์
    1,292
    Thanks
    1,163
    Thanked 0 Times in 0 Posts
    ขอบคุณมาก

  4. #3
    Senior Member
    สมัครเมื่อ
    Jun 2014
    โพสต์
    3,105
    Thanks
    0
    Thanked 0 Times in 0 Posts
    ขอบคุณครับ

+ ตอบกลับกระทู้

ข้อมูลกระทู้

Users Browsing this Thread

ในขณะนี้มี 1 ท่านดูกระทู้อยู่. (0 สมาชิกและ 1 ผู้เยี่ยมชม)

     

กฎการโพสต์ข้อความ

  • ท่าน ไม่สามารถ ตั้งกระทู้ใหม่ได้
  • ท่าน ไม่สามารถ ตอบกระทู้ได้
  • ท่าน ไม่สามารถ แนบไฟล์ได้
  • ท่าน ไม่สามารถ แก้ไขข้อความโพสต์ได้
  • BB code สถานะ เปิด
  • Smilies สถานะ เปิด
  • [IMG] สถานะ เปิด
  • HTML สถานะ ปิด