+ ตอบกลับกระทู้
สรุปผลการค้นหา 1 ถึง 3 จากทั้งหมด 3
  1. #1
    Administrators รูปส่วนตัว Duckload.us
    สมัครเมื่อ
    Dec 2010
    โพสต์
    116,106
    Thanks
    7
    Thanked 122,520 Times in 54,952 Posts

    Question [ฝรั่ง] • [*ใหม่*] The Death of Dick Long (2019) ไอ้หำยาวแห่งความตาย • [อังกฤษ DTS 5.1] • [บรรยายไทย + อังกฤษ] • [From Blu-Ray Master 1080p]



    หลังจากหนึ่งคืนของการออกไปเที่ยวผิดไปอย่างมากเพื่อ นซีคและเอิร์ลพยายามปกปิดความตายของดิ๊กเพื่อนของพวก เขาสถานการณ์ที่อาจหมายถึงผลลัพธ์ที่น่ากลัวหากใครก็ ตามพบ

    Format : Matroska
    Format version : Version 4
    File size : 9.86 GiB
    Duration : 1 h 40 min
    Overall bit rate : 14.1 Mb/s
    Encoded date : UTC 2020-02-26 09:02:49
    Writing application : mkvmerge v43.0.0 ('The Quartermaster') 64-bit
    Writing library : libebml v1.3.10 + libmatroska v1.5.2

    Video
    ID : 1
    Format : AVC
    Format/Info : Advanced Video Codec
    Format profile : [email protected]
    Format settings : CABAC / 4 Ref Frames
    Format settings, CABAC : Yes
    Format settings, Reference frames : 4 frames
    Codec ID : V_MPEG4/ISO/AVC
    Duration : 1 h 40 min
    Bit rate : 12.5 Mb/s
    Width : 1 920 pixels
    Height : 960 pixels
    Display aspect ratio : 2.000
    Frame rate mode : Constant
    Frame rate : 23.976 (24000/1001) FPS
    Color space : YUV
    Chroma subsampling : 4:2:0
    Bit depth : 8 bits
    Scan type : Progressive
    Bits/(Pixel*Frame) : 0.283
    Stream size : 8.77 GiB (89%)
    Writing library : x264 core 159 r2991 1771b55
    Encoding settings : cabac=1 / ref=4 / deblock=1:-3:-3 / analyse=0x3:0x113 / me=umh / subme=8 / psy=1 / psy_rd=1.00:0.00 / mixed_ref=1 / me_range=32 / chroma_me=1 / trellis=2 / 8x8dct=1 / cqm=0 / deadzone=21,11 / fast_pskip=1 / chroma_qp_offset=-2 / threads=30 / lookahead_threads=5 / sliced_threads=0 / nr=0 / decimate=1 / interlaced=0 / bluray_compat=0 / constrained_intra=0 / bframes=3 / b_pyramid=2 / b_adapt=2 / b_bias=0 / direct=3 / weightb=1 / open_gop=0 / weightp=2 / keyint=240 / keyint_min=24 / scenecut=40 / intra_refresh=0 / rc_lookahead=50 / rc=2pass / mbtree=1 / bitrate=12520 / ratetol=1.0 / qcomp=0.60 / qpmin=0 / qpmax=69 / qpstep=4 / cplxblur=20.0 / qblur=0.5 / ip_ratio=1.40 / aq=3:0.80
    Default : Yes
    Forced : No

    Audio
    ID : 2
    Format : DTS
    Format/Info : Digital Theater Systems
    Codec ID : A_DTS
    Duration : 1 h 40 min
    Bit rate mode : Constant
    Bit rate : 1 509 kb/s
    Channel(s) : 6 channels
    Channel layout : C L R Ls Rs LFE
    Sampling rate : 48.0 kHz
    Frame rate : 93.750 FPS (512 SPF)
    Bit depth : 24 bits
    Compression mode : Lossy
    Stream size : 1.06 GiB (11%)
    Language : English
    Default : Yes
    Forced : No

    Text #1
    ID : 3
    Format : PGS
    Muxing mode : zlib
    Codec ID : S_HDMV/PGS
    Codec ID/Info : Picture based subtitle format used on BDs/HD-DVDs
    Duration : 1 h 37 min
    Bit rate : 38.3 kb/s
    Count of elements : 3022
    Stream size : 26.5 MiB (0%)
    Title : Thai PGS White
    Language : Thai
    Default : Yes
    Forced : No

    Text #2
    ID : 4
    Format : PGS
    Muxing mode : zlib
    Codec ID : S_HDMV/PGS
    Codec ID/Info : Picture based subtitle format used on BDs/HD-DVDs
    Duration : 1 h 37 min
    Bit rate : 38.3 kb/s
    Count of elements : 3022
    Stream size : 26.5 MiB (0%)
    Title : Thai PGS Out White
    Language : Thai
    Default : No
    Forced : No

    Text #3
    ID : 5
    Format : UTF-8
    Codec ID : S_TEXT/UTF8
    Codec ID/Info : UTF-8 Plain Text
    Duration : 1 h 39 min
    Bit rate : 57 b/s
    Count of elements : 1229
    Stream size : 41.7 KiB (0%)
    Language : English
    Default : No
    Forced : No

    Text #4
    ID : 6
    Format : UTF-8
    Codec ID : S_TEXT/UTF8
    Codec ID/Info : UTF-8 Plain Text
    Duration : 1 h 39 min
    Bit rate : 63 b/s
    Count of elements : 1367
    Stream size : 46.1 KiB (0%)
    Title : SDH
    Language : English
    Default : No
    Forced : No

    Menu
    00:00:00.000 : en:Chapter 01
    00:07:01.755 : en:Chapter 02
    00:12:52.271 : en:Chapter 03
    00:17:08.110 : en:Chapter 04
    00:23:20.107 : en:Chapter 05
    00:27:46.123 : en:Chapter 06
    00:34:14.636 : en:Chapter 07
    00:41:40.873 : en:Chapter 08
    00:49:21.667 : en:Chapter 09
    00:57:54.096 : en:Chapter 10
    01:02:47.681 : en:Chapter 11
    01:08:25.518 : en:Chapter 12
    01:17:20.678 : en:Chapter 13
    01:22:21.770 : en:Chapter 14
    01:31:06.127 : en:Chapter 15
    01:35:03.239 : en:Chapter 16





    9.86 GB
    Download: cornfile
    http://cornfile.com/muuxu426sdkj
    Download: mekafile
    http://www.mekafile.com/dl.php?f=oga4b6c5MxYj

    4.99 GB
    Download: cornfile
    http://cornfile.com/8ew9uy7h8zdq
    Download: mekafile
    http://www.mekafile.com/dl.php?f=uwbe05c5MyMF

  2. The Following User Says Thank You to Duckload.us For This Useful Post:

    Tatum03 (02-26-2020)

  3. #2
    Senior Member
    สมัครเมื่อ
    Oct 2013
    ที่อยู่
    Thailand
    โพสต์
    1,348
    Thanks
    1,219
    Thanked 0 Times in 0 Posts
    ขอบคุณมาก

  4. #3
    Senior Member
    สมัครเมื่อ
    Jun 2014
    โพสต์
    4,088
    Thanks
    0
    Thanked 0 Times in 0 Posts
    ขอบคุณครับ

+ ตอบกลับกระทู้

ข้อมูลกระทู้

Users Browsing this Thread

ในขณะนี้มี 1 ท่านดูกระทู้อยู่. (0 สมาชิกและ 1 ผู้เยี่ยมชม)

     

กฎการโพสต์ข้อความ

  • ท่าน ไม่สามารถ ตั้งกระทู้ใหม่ได้
  • ท่าน ไม่สามารถ ตอบกระทู้ได้
  • ท่าน ไม่สามารถ แนบไฟล์ได้
  • ท่าน ไม่สามารถ แก้ไขข้อความโพสต์ได้
  • BB code สถานะ เปิด
  • Smilies สถานะ เปิด
  • [IMG] สถานะ เปิด
  • HTML สถานะ ปิด