+ ตอบกลับกระทู้
สรุปผลการค้นหา 1 ถึง 3 จากทั้งหมด 3
  1. #1
    Administrators รูปส่วนตัว Duckload.us
    สมัครเมื่อ
    Dec 2010
    โพสต์
    112,787
    Thanks
    7
    Thanked 118,648 Times in 53,690 Posts

    Question [ฝรั่ง]-Jumanji: The Next Level (2019) เกมดูดโลก ตะลุยด่านมหัศจรรย์ - [พากย์ไทยโรง+อังกฤษ] [บรรยายอังกฤษ] 1080p.WEBRip.DD5.1.x264




    การกลับมาอีกครั้งของวัยรุ่นทั้งสี่คนที่รอดชีวิตจาก การเล่นเกมของ Jumanji: Welcome to the Jungle เมื่อพวกเขากลับจากมหาวิทยาลัยของพวกเขาไปยังบ้านที่ แบรนด์ฟอร์ด รัฐนิวแฮมป์เชียร์ สาหรับเทศกาลปีใหม่ ตอนนี้พวกเขาเป็นนักศึกษากันแล้ว หลังจากที่สเปนเซอร์ถูกชักจูงให้กลับเข้าไปในเกมอีกค รั้ง มาร์ธา, ฟริดจ์และเบธานี่ย์จะต้องร่วมมือกัน กระโดดเข้าไปในโลก Jumanji อีกครั้ง เพื่อปฏิบัติภารกิจช่วยเหลือสุดท้าทายเพื่อนาสเปนเซอ ร์กลับบ้านให้จงได้


    Duration : 2 h 3 min
    Overall bit rate : 6 559 kb/s
    Encoded date : UTC 2020-02-27 03:31:52
    Writing application : mkvmerge v43.0.0 ('The Quartermaster') 64-bit
    Writing library : libebml v1.3.10 + libmatroska v1.5.2
    Attachments : Jumanji-The-Next-Level-2019.jpeg

    Video
    ID : 1
    Format : AVC
    Format/Info : Advanced Video Codec
    Format profile : [email protected]
    Format settings : CABAC / 2 Ref Frames
    Format settings, CABAC : Yes
    Format settings, Reference : 2 frames
    Codec ID : V_MPEG4/ISO/AVC
    Duration : 2 h 3 min
    Bit rate : 5 509 kb/s
    Width : 1 920 pixels
    Height : 1 080 pixels
    Display aspect ratio : 16:9
    Frame rate mode : Constant
    Frame rate : 23.976 (24000/1001) FPS
    Color space : YUV
    Chroma subsampling : 4:2:0
    Bit depth : 8 bits
    Scan type : Progressive
    Bits/(Pixel*Frame) : 0.111
    Stream size : 4.74 GiB (84%)
    Writing library : x264 core 155 r2901 7d0ff22
    Default : Yes
    Forced : No
    Color range : Limited
    Color primaries : BT.709
    Transfer characteristics : BT.709
    Matrix coefficients : BT.709

    Audio #1
    ID : 2
    Format : AC-3
    Format/Info : Audio Coding 3
    Commercial name : Dolby Digital
    Codec ID : A_AC3
    Duration : 2 h 3 min
    Bit rate mode : Constant
    Bit rate : 384 kb/s
    Channel(s) : 6 channels
    Channel layout : L R C LFE Ls Rs
    Sampling rate : 48.0 kHz
    Frame rate : 31.250 FPS (1536 SPF)
    Compression mode : Lossy
    Delay relative to video : 6 ms
    Stream size : 338 MiB (6%)
    Language : English
    Service kind : Complete Main
    Default : No
    Forced : No

    Audio #2
    ID : 3
    Format : AC-3
    Format/Info : Audio Coding 3
    Commercial name : Dolby Digital
    Codec ID : A_AC3
    Duration : 2 h 3 min
    Bit rate mode : Constant
    Bit rate : 640 kb/s
    Channel(s) : 6 channels
    Channel layout : L R C LFE Ls Rs
    Sampling rate : 48.0 kHz
    Frame rate : 31.250 FPS (1536 SPF)
    Compression mode : Lossy
    Delay relative to video : 12 ms
    Stream size : 564 MiB (10%)
    Language : Thai
    Service kind : Complete Main
    Default : Yes
    Forced : No

    Text #1
    ID : 4
    Format : VobSub
    Muxing mode : zlib
    Codec ID : S_VOBSUB
    Codec ID/Info : Picture based subtitle format used on DVDs
    Duration : 1 h 52 min
    Bit rate : 11.2 kb/s
    Count of elements : 1719
    Stream size : 9.03 MiB (0%)
    Language : English
    Default : No
    Forced : No

    Text #2
    ID : 5
    Format : PGS
    Muxing mode : zlib
    Codec ID : S_HDMV/PGS
    Codec ID/Info : Picture based subtitle format used on BDs/HD-DVDs
    Duration : 1 h 52 min
    Bit rate : 51.7 kb/s
    Count of elements : 3438
    Stream size : 41.7 MiB (1%)
    Language : English
    Default : Yes
    Forced : No






    Download: cornfile
    http://cornfile.com/ujgrdbt964li
    Download: mekafile
    http://www.mekafile.com/dl.php?f=Ktebf0c5Or9D

  2. The Following 2 Users Say Thank You to Duckload.us For This Useful Post:

    gozilla02 (02-28-2020), noi54 (02-28-2020)

  3. #2
    Senior Member
    สมัครเมื่อ
    Jun 2014
    โพสต์
    3,094
    Thanks
    0
    Thanked 0 Times in 0 Posts
    ขอบคุณครับ

  4. #3
    Senior Member รูปส่วนตัว gozilla02
    สมัครเมื่อ
    Jul 2012
    โพสต์
    229
    Thanks
    90
    Thanked 1 Time in 1 Post
    ขอบคุณจ้า
    http://rabbitfileloveav.blogspot.com/ โหลดหนัง AV 18+ใหม่ล่าสุด อัพเดตทุกวัน มีทุกแนว 1080P Cornfile 10000 เรื่อง

+ ตอบกลับกระทู้

ข้อมูลกระทู้

Users Browsing this Thread

ในขณะนี้มี 1 ท่านดูกระทู้อยู่. (0 สมาชิกและ 1 ผู้เยี่ยมชม)

     

กฎการโพสต์ข้อความ

  • ท่าน ไม่สามารถ ตั้งกระทู้ใหม่ได้
  • ท่าน ไม่สามารถ ตอบกระทู้ได้
  • ท่าน ไม่สามารถ แนบไฟล์ได้
  • ท่าน ไม่สามารถ แก้ไขข้อความโพสต์ได้
  • BB code สถานะ เปิด
  • Smilies สถานะ เปิด
  • [IMG] สถานะ เปิด
  • HTML สถานะ ปิด