+ ตอบกลับกระทู้
สรุปผลการค้นหา 1 ถึง 5 จากทั้งหมด 5
  1. #1
    Administrators รูปส่วนตัว Duckload.us
    สมัครเมื่อ
    Dec 2010
    โพสต์
    112,788
    Thanks
    7
    Thanked 118,648 Times in 53,690 Posts

    Question [ฝรั่ง]-[ใหม่!!] *** Villains (2019) : บ้านซ่อนเพี้ยน *** ภาพชัดแจ่ม บรรยายอังกฤษ-ไทยสวยๆ พิเศษ พากษ์ไทยมาสเตอร์-WEB-DL.H.264.1080p. [Modified]-[พากย์ไทย บรรยายไทย]




    คู่รักหัวขโมยมือสมัครเล่นสองคน มิคกี้ (บิลล์ สการ์สการ์ด) และ จูลส์ (ไมก้า มอนโร) ได้บุกเข้าไปในบ้านย่านชานเมืองหลังหนึ่ง ก่อนจะไปบังเอิญล่วงรู้ความลับของสองเจ้าของบ้านจอมซ าดิสม์ที่พวกเขาพยายามจะเก็บงำความลับนี้ไม่ให้ใครแพ ร่งพรายมันออกไป

    Format : Matroska
    Format version : Version 4
    File size : 6.08 GiB
    Duration : 1 h 29 min
    Overall bit rate : 9 689 kb/s
    Encoded date : UTC 2020-02-27 07:03:05
    Writing application : mkvmerge v40.0.0 ('Old Town Road + Pony') 64-bit
    Writing library : libebml v1.3.9 + libmatroska v1.5.2

    Video
    ID : 1
    Format : AVC
    Format/Info : Advanced Video Codec
    Format profile : [email protected]
    Format settings : CABAC / 4 Ref Frames
    Format settings, CABAC : Yes
    Format settings, Reference frames : 4 frames
    Codec ID : V_MPEG4/ISO/AVC
    Duration : 1 h 29 min
    Bit rate mode : Constant
    Bit rate : 8 812 kb/s
    Nominal bit rate : 10 000 kb/s
    Width : 1 920 pixels
    Height : 800 pixels
    Display aspect ratio : 2.40:1
    Frame rate mode : Constant
    Frame rate : 23.976 (24000/1001) FPS
    Color space : YUV
    Chroma subsampling : 4:2:0
    Bit depth : 8 bits
    Scan type : Progressive
    Bits/(Pixel*Frame) : 0.239
    Stream size : 5.53 GiB (91%)
    Default : Yes
    Forced : No
    Color range : Limited
    Color primaries : BT.709
    Transfer characteristics : BT.709
    Matrix coefficients : BT.709

    Audio #1
    ID : 2
    Format : E-AC-3
    Format/Info : Enhanced AC-3
    Commercial name : Dolby Digital Plus
    Codec ID : A_EAC3
    Duration : 1 h 29 min
    Bit rate mode : Constant
    Bit rate : 640 kb/s
    Channel(s) : 6 channels
    Channel layout : L R C LFE Ls Rs
    Sampling rate : 48.0 kHz
    Frame rate : 31.250 FPS (1536 SPF)
    Compression mode : Lossy
    Stream size : 411 MiB (7%)
    Language : English
    Service kind : Complete Main
    Default : No
    Forced : No

    Audio #2
    ID : 6
    Format : AAC LC
    Format/Info : Advanced Audio Codec Low Complexity
    Codec ID : A_AAC-2
    Duration : 1 h 29 min
    Bit rate : 218 kb/s
    Channel(s) : 2 channels
    Channel layout : L R
    Sampling rate : 44.1 kHz
    Frame rate : 43.066 FPS (1024 SPF)
    Compression mode : Lossy
    Stream size : 140 MiB (2%)
    Title : เสียงไทย โดย ดีเจ อาท
    Language : Thai
    Default : Yes
    Forced : Yes

    Text #1
    ID : 3
    Format : UTF-8
    Codec ID : S_TEXT/UTF8
    Codec ID/Info : UTF-8 Plain Text
    Duration : 1 h 24 min
    Bit rate : 63 b/s
    Count of elements : 1325
    Stream size : 39.5 KiB (0%)
    Language : English
    Default : No
    Forced : No

    Text #2
    ID : 4
    Format : UTF-8
    Codec ID : S_TEXT/UTF8
    Codec ID/Info : UTF-8 Plain Text
    Duration : 1 h 29 min
    Bit rate : 69 b/s
    Count of elements : 1689
    Stream size : 45.3 KiB (0%)
    Title : SDH
    Language : English
    Default : No
    Forced : No

    Text #3
    ID : 5
    Format : PGS
    Muxing mode : zlib
    Codec ID : S_HDMV/PGS
    Codec ID/Info : Picture based subtitle format used on BDs/HD-DVDs
    Duration : 1 h 29 min
    Bit rate : 30.0 kb/s
    Count of elements : 2158
    Stream size : 19.2 MiB (0%)
    Title : บรรยายไทย
    Language : Thai
    Default : Yes
    Forced : No





    Download: cornfile
    http://cornfile.com/1mddnskpdzoo
    Download: mekafile
    http://www.mekafile.com/dl.php?f=mF447bc5OMeW

  2. The Following 4 Users Say Thank You to Duckload.us For This Useful Post:

    gaszolineskywalker (03-28-2020), Jodz14 (02-29-2020), noi54 (02-28-2020), Wesker_TOT (02-28-2020)

  3. #2
    Senior Member
    สมัครเมื่อ
    Jun 2014
    โพสต์
    3,094
    Thanks
    0
    Thanked 0 Times in 0 Posts
    ขอบคุณครับ

  4. #3
    Senior Member
    สมัครเมื่อ
    Dec 2013
    โพสต์
    2,036
    Thanks
    3,957
    Thanked 0 Times in 0 Posts
    ขอบคุณนะครับ...

  5. #4
    Senior Member
    สมัครเมื่อ
    Jul 2012
    โพสต์
    6,614
    Thanks
    0
    Thanked 0 Times in 0 Posts
    ขอบคุณมากจ้า

  6. #5
    Senior Member
    สมัครเมื่อ
    Oct 2012
    โพสต์
    938
    Thanks
    1,876
    Thanked 0 Times in 0 Posts
    ขอบคุณครับ

+ ตอบกลับกระทู้

ข้อมูลกระทู้

Users Browsing this Thread

ในขณะนี้มี 1 ท่านดูกระทู้อยู่. (0 สมาชิกและ 1 ผู้เยี่ยมชม)

     

กฎการโพสต์ข้อความ

  • ท่าน ไม่สามารถ ตั้งกระทู้ใหม่ได้
  • ท่าน ไม่สามารถ ตอบกระทู้ได้
  • ท่าน ไม่สามารถ แนบไฟล์ได้
  • ท่าน ไม่สามารถ แก้ไขข้อความโพสต์ได้
  • BB code สถานะ เปิด
  • Smilies สถานะ เปิด
  • [IMG] สถานะ เปิด
  • HTML สถานะ ปิด