+ ตอบกลับกระทู้
สรุปผลการค้นหา 1 ถึง 2 จากทั้งหมด 2
  1. #1
    Administrators รูปส่วนตัว Duckload.us
    สมัครเมื่อ
    Dec 2010
    โพสต์
    112,806
    Thanks
    7
    Thanked 118,660 Times in 53,692 Posts

    Question (ฝรั่ง.ไทยมาสเตอร์)-Bent (2018) -[BluRay. 1080p][ Sound:Eng/Thai AC3 2.0:Master][SUB:Eng.PGS]



    Danny Gallagher (คาร์ล Urban) นักสืบยาเสพติดที่ติดคุกข้อหาร้ายแรงได้รับการปล่อยต ัวจากคุก เขาเริ่มหาแผนการที่จะหาทางแก้แค้นให้กับผู้ที่จัดฉา กทำให้เขาต้องติดคุกและฆ่าคู่หูของเขาตาย กัลลาเกอร์ต้องร่วมมือกับเจ้าหน้าที่รัฐบาล(FBI) Rebecca (Sofía Vergara) ซึ่งอาจหรือไม่อาจจริงใจกับขา และความช่วยเหลือของจิมมี่ Murtha ที่ปรึกษาของเขา (Andy García), ตำรวจที่ปลดเกษียณที่ต่อสู้กับการทุจริตมาทั้งอาชีพข องเขา

    Format : Matroska
    Format version : Version 4
    File size : 3.32 GiB
    Duration : 1 h 36 min
    Overall bit rate : 4 920 kb/s
    Movie name : Bent.2018.1080p.BluRay.x264-_©GOLD CUP™

    Video
    ID : 1
    Format : AVC
    Format/Info : Advanced Video Codec
    Format profile : [email protected]
    Format settings : CABAC / 1 Ref Frames
    Format settings, CABAC : Yes
    Format settings, Reference : 1 frame
    Format settings, GOP : M=1, N=25
    Codec ID : V_MPEG4/ISO/AVC
    Duration : 1 h 36 min
    Bit rate mode : Constant
    Bit rate : 4 000 kb/s
    Width : 1 920 pixels
    Height : 800 pixels
    Display aspect ratio : 2.40:1
    Frame rate mode : Constant
    Frame rate : 29.970 (30000/1001) FPS
    Color space : YUV
    Chroma subsampling : 4:2:0
    Bit depth : 8 bits
    Scan type : Progressive
    Bits/(Pixel*Frame) : 0.087
    Stream size : 2.69 GiB (81%)
    Title : Bent.2018.1080p.BluRay.x264-_©GOLD CUP™
    Language : English
    Default : Yes
    Forced : No

    Audio #1
    ID : 2
    Format : AC-3
    Format/Info : Audio Coding 3
    Commercial name : Dolby Digital
    Codec ID : A_AC3
    Duration : 1 h 36 min
    Bit rate mode : Constant
    Bit rate : 256 kb/s
    Channel(s) : 2 channels
    Channel layout : L R
    Sampling rate : 44.1 kHz
    Frame rate : 28.711 FPS (1536 SPF)
    Compression mode : Lossy
    Stream size : 177 MiB (5%)
    Title : 2.0 AC3 Th 256k 176m_©GOLD CUP™
    Language : Thai
    Service kind : Complete Main
    Default : Yes
    Forced : No

    Audio #2
    ID : 3
    Format : AC-3
    Format/Info : Audio Coding 3
    Commercial name : Dolby Digital
    Codec ID : A_AC3
    Duration : 1 h 36 min
    Bit rate mode : Constant
    Bit rate : 640 kb/s
    Channel(s) : 2 channels
    Channel layout : L R
    Sampling rate : 44.1 kHz
    Frame rate : 28.711 FPS (1536 SPF)
    Compression mode : Lossy
    Stream size : 442 MiB (13%)
    Title : 2.0 AC3 EN 640k 441m_©GOLD CUP™
    Language : English
    Service kind : Complete Main
    Default : No
    Forced : No

    Text #1
    ID : 4
    Format : PGS
    Muxing mode : zlib
    Codec ID : S_HDMV/PGS
    Codec ID/Info : Picture based subtitle format used on BDs/HD-DVDs
    Duration : 1 h 32 min
    Bit rate : 19.3 kb/s
    Count of elements : 1840
    Stream size : 12.8 MiB (0%)
    Title : EN.PGS.Orange.75-50-10_©GOLD CUP™
    Language : English
    Default : Yes
    Forced : No

    Text #2
    ID : 5
    Format : PGS
    Muxing mode : zlib
    Codec ID : S_HDMV/PGS
    Codec ID/Info : Picture based subtitle format used on BDs/HD-DVDs
    Duration : 1 h 35 min
    Bit rate : 22.0 kb/s
    Count of elements : 2884
    Stream size : 15.1 MiB (0%)
    Title : EN.SDH.PGS.Blue.75-50-10_©GOLD CUP™
    Language : English
    Default : No
    Forced : No





    Download: cornfile
    http://cornfile.com/f1zd99dqfaq6
    Download: mekafile
    http://www.mekafile.com/dl.php?f=Sf3a27c5RecB

  2. The Following 3 Users Say Thank You to Duckload.us For This Useful Post:

    Jodz14 (02-29-2020), noi54 (02-29-2020), smakha (03-02-2020)

  3. #2
    Senior Member
    สมัครเมื่อ
    Jun 2014
    โพสต์
    3,105
    Thanks
    0
    Thanked 0 Times in 0 Posts
    ขอบคุณครับ

+ ตอบกลับกระทู้

ข้อมูลกระทู้

Users Browsing this Thread

ในขณะนี้มี 1 ท่านดูกระทู้อยู่. (0 สมาชิกและ 1 ผู้เยี่ยมชม)

     

กฎการโพสต์ข้อความ

  • ท่าน ไม่สามารถ ตั้งกระทู้ใหม่ได้
  • ท่าน ไม่สามารถ ตอบกระทู้ได้
  • ท่าน ไม่สามารถ แนบไฟล์ได้
  • ท่าน ไม่สามารถ แก้ไขข้อความโพสต์ได้
  • BB code สถานะ เปิด
  • Smilies สถานะ เปิด
  • [IMG] สถานะ เปิด
  • HTML สถานะ ปิด