เรื่องราวของคู่หูคู่ฮาและการออกจารกรรมข้ามชาติ แลนซ์ สเตอร์ริ่ง (วิล สมิธ) สายลับที่เจ๋งที่สุดในโลก เขาเท่ มีเสน่ห์ มีฝีมือร้ายกาจ การช่วยโลกคืออาชีพของเขา ไม่มีใครจะทำได้ดีไปกว่าเขาอีกแล้ว และ วอลเทอร์ (ทอม ฮอลแลนด์) คนที่มีจิตใจดีและแทบจะตรงข้ามกับแลนซ์โดยสิ้นเชิง ซึ่งเขาอาจไม่ใช่คนที่พูดคุยได้เก่งนัก ถึงแม้ว่าเขาจะขาดความสามารถในการเข้าสังคม แต่ความสามารถเหล่านั้นก็ถูกทดแทนด้วยความฉลาดและช่า งประดิษฐ์ วอลเทอร์เป็นนักวิทยาศาสตร์อัจฉริยะผู้ประดิษฐ์อุปกร ณ์ที่ใช้ในภารกิจต่าง ๆ ของเขานั่นเอง แต่เมื่อเหตุการณ์ที่ไม่คาดฝันเกิดขึ้น เมื่อทั้งสองต้องหันมาเชื่อมั่นในตัวกันและกันในแง่ม ุมใหม่ ๆ และนี่เองที่หากพวกเขาไม่เรียนรู้ที่จะทำงานร่วมกันเ ป็นทีม โลกทั้งใบอาจตกอยู่ในอันตรายใหญ่หลวง

Format : Matroska
Format version : Version 4
File size : 4.59 GiB
Duration : 1 h 41 min
Overall bit rate : 6 450 kb/s
Movie name : GalaxyRG - Spies.In.Disguise.2019.1080p.BluRay.1400MB.DD5.1.x 264-GalaxyRG
Encoded date : UTC 2020-02-27 12:13:55
Writing application : mkvmerge v40.0.0 ('Old Town Road + Pony') 64-bit
Writing library : libebml v1.3.9 + libmatroska v1.5.2 / Lavf58.27.100
Comment : GalaxyRG - Spies.In.Disguise.2019.1080p.BluRay.1400MB.DD5.1.x 264-GalaxyRG

Video
ID : 1
Format : AVC
Format/Info : Advanced Video Codec
Format profile : [email protected]
Format settings : CABAC / 1 Ref Frames
Format settings, CABAC : Yes
Format settings, Reference frames : 1 frame
Codec ID : V_MPEG4/ISO/AVC
Duration : 1 h 41 min
Bit rate : 5 980 kb/s
Width : 1 920 pixels
Height : 804 pixels
Display aspect ratio : 2.40:1
Frame rate mode : Constant
Frame rate : 23.976 (24000/1001) FPS
Color space : YUV
Chroma subsampling : 4:2:0
Bit depth : 8 bits
Scan type : Progressive
Bits/(Pixel*Frame) : 0.162
Stream size : 4.25 GiB (93%)
Default : Yes
Forced : No
Color range : Limited
Color primaries : BT.709
Transfer characteristics : BT.709
Matrix coefficients : BT.709

Audio #1
ID : 2
Format : AAC LC
Format/Info : Advanced Audio Codec Low Complexity
Codec ID : A_AAC-2
Duration : 1 h 41 min
Bit rate : 147 kb/s
Channel(s) : 2 channels
Channel layout : L R
Sampling rate : 44.1 kHz
Frame rate : 43.066 FPS (1024 SPF)
Compression mode : Lossy
Stream size : 107 MiB (2%)
Title : เสียงไทยโรง โดย ดีเจ อาท
Language : Thai
Default : Yes
Forced : Yes

Audio #2
ID : 3
Format : AC-3
Format/Info : Audio Coding 3
Commercial name : Dolby Digital
Codec ID : A_AC3
Duration : 1 h 41 min
Bit rate mode : Constant
Bit rate : 320 kb/s
Channel(s) : 6 channels
Channel layout : L R C LFE Ls Rs
Sampling rate : 48.0 kHz
Frame rate : 31.250 FPS (1536 SPF)
Bit depth : 16 bits
Compression mode : Lossy
Stream size : 233 MiB (5%)
Writing library : Lavc58.48.101 ac3
Language : English
Service kind : Complete Main
Default : No
Forced : No

Menu
00:00:00.000 : :Chapter 1
00:04:09.546 : :Chapter 2
00:06:54.544 : :Chapter 3
00:15:30.309 : :Chapter 4
00:15:31.060 : :Chapter 5
00:20:35.531 : :Chapter 6
00:23:20.905 : :Chapter 7
00:26:42.481 : :Chapter 8
00:30:59.571 : :Chapter 9
00:36:06.628 : :Chapter 10
00:41:34.998 : :Chapter 11
00:45:41.994 : :Chapter 12
00:49:57.833 : :Chapter 13
00:53:58.949 : :Chapter 14
00:56:34.354 : :Chapter 15
01:00:06.817 : :Chapter 16
01:08:46.878 : :Chapter 17
01:12:51.831 : :Chapter 18
01:17:33.654 : :Chapter 19
01:20:18.986 : :Chapter 20
01:23:19.124 : :Chapter 21
01:26:05.290 : :Chapter 22
01:29:47.220 : :Chapter 23
01:33:08.922 : :Chapter 24





Download: cornfile
http://cornfile.com/sxk0fys4swxp
Download: mekafile
http://www.mekafile.com/dl.php?f=AHa80ec5ReqI