+ ตอบกลับกระทู้
สรุปผลการค้นหา 1 ถึง 2 จากทั้งหมด 2
  1. #1
    Administrators รูปส่วนตัว Duckload.us
    สมัครเมื่อ
    Dec 2010
    โพสต์
    112,806
    Thanks
    7
    Thanked 118,660 Times in 53,692 Posts

    Cool [ฝรั่ง]-Altered Carbon ==Complete Season 1-2 [ DD 5.1 +DDP 5.1 Atmos Sub Thai Master Netflix]-W -WEB-DL.H.264.1080p. [Hi-def rip from Master]-[Soundtrack บรรยายไทย]



    SS1
    Sound : Eng DD 5.1
    Subtitle : Thai PGS+ SRT, Eng SRT และภาษาอื่นๆ Master Netflix

    SS2
    Sound : Eng DDP 5.1 Atmos
    Subtitle : Thai SRT, Eng SRT และภาษาอื่นๆ Master Netflix

    อัลเทอร์ด คาร์บอน

    หลังจากถูกแช่แข็งนานถึง 250 ปี เขาตื่นขึ้นในร่างใหม่พร้อมโอกาสเดียวที่จะได้รับอิส รภาพ นั่นคือการไขคดีฆาตกรรมซ่อนเงื่อน

    นักแสดงนำ:โจเอล คินนาแมน, เจมส์ เพียวฟอย, มาร์ธา ฮิกาเรด้า
    ผู้สร้าง:เลตา เคโลกริดิส

    Format : Matroska
    Format version : Version 4
    File size : 1.90 GiB
    Duration : 1 h 6 min
    Overall bit rate mode : Variable
    Overall bit rate : 4 056 kb/s
    Encoded date : UTC 2020-02-27 09:34:54
    Writing application : mkvmerge v35.0.0 ('All The Love In The World') 64-bit
    Writing library : libebml v1.3.9 + libmatroska v1.5.2

    Video
    ID : 1
    Format : AVC
    Format/Info : Advanced Video Codec
    Format profile : [email protected]
    Format settings : CABAC / 3 Ref Frames
    Format settings, CABAC : Yes
    Format settings, Reference frames : 3 frames
    Codec ID : V_MPEG4/ISO/AVC
    Duration : 1 h 6 min
    Bit rate mode : Variable
    Bit rate : 3 650 kb/s
    Maximum bit rate : 5 475 kb/s
    Width : 1 920 pixels
    Height : 1 080 pixels
    Display aspect ratio : 16:9
    Frame rate mode : Constant
    Frame rate : 23.976 (24000/1001) FPS
    Color space : YUV
    Chroma subsampling : 4:2:0
    Bit depth : 8 bits
    Scan type : Progressive
    Bits/(Pixel*Frame) : 0.073
    Stream size : 1.68 GiB (88%)
    Writing library : x264 core 148 r2714 2daf636
    Encoding settings : cabac=1 / ref=3 / deblock=1:0:0 / analyse=0x1:0x111 / me=umh / subme=10 / psy=1 / psy_rd=1.00:0.00 / mixed_ref=1 / me_range=24 / chroma_me=1 / trellis=2 / 8x8dct=0 / cqm=0 / deadzone=21,11 / fast_pskip=1 / chroma_qp_offset=-2 / threads=8 / lookahead_threads=1 / sliced_threads=0 / nr=0 / decimate=1 / interlaced=0 / bluray_compat=0 / stitchable=1 / constrained_intra=0 / bframes=2 / b_pyramid=0 / b_adapt=2 / b_bias=0 / direct=3 / weightb=1 / open_gop=0 / weightp=2 / keyint=48 / keyint_min=25 / scenecut=0 / intra_refresh=0 / rc_lookahead=48 / rc=2pass / mbtree=1 / bitrate=3650 / ratetol=1.0 / qcomp=0.50 / qpmin=6 / qpmax=51 / qpstep=4 / cplxblur=20.0 / qblur=0.5 / vbv_maxrate=5475 / vbv_bufsize=7300 / nal_hrd=vbr / filler=0 / ip_ratio=1.40 / aq=1:1.00
    Default : Yes
    Forced : No

    Audio
    ID : 2
    Format : E-AC-3 JOC
    Format/Info : Enhanced AC-3 with Joint Object Coding
    Commercial name : Dolby Digital Plus with Dolby Atmos
    Codec ID : A_EAC3
    Duration : 1 h 6 min
    Bit rate mode : Constant
    Bit rate : 448 kb/s
    Channel(s) : 6 channels
    Channel layout : L R C LFE Ls Rs
    Sampling rate : 48.0 kHz
    Frame rate : 31.250 FPS (1536 SPF)
    Compression mode : Lossy
    Stream size : 212 MiB (11%)
    Language : English
    Service kind : Complete Main
    Default : Yes
    Forced : No
    Complexity index : 16
    Number of dynamic objects : 15
    Bed channel count : 1 channel
    Bed channel configuration : LFE

    Text #1
    ID : 3
    Format : UTF-8
    Codec ID : S_TEXT/UTF8
    Codec ID/Info : UTF-8 Plain Text
    Duration : 26 min 58 s
    Bit rate : 0 b/s
    Count of elements : 4
    Stream size : 115 Bytes (0%)
    Title : Forced
    Language : English
    Default : No
    Forced : No

    Text #2
    ID : 4
    Format : UTF-8
    Codec ID : S_TEXT/UTF8
    Codec ID/Info : UTF-8 Plain Text
    Duration : 1 h 3 min
    Bit rate : 55 b/s
    Count of elements : 731
    Stream size : 25.6 KiB (0%)
    Title : SDH
    Language : English
    Default : No
    Forced : No

    Text #3
    ID : 5
    Format : PGS
    Muxing mode : zlib
    Codec ID : S_HDMV/PGS
    Codec ID/Info : Picture based subtitle format used on BDs/HD-DVDs
    Duration : 1 h 5 min
    Bit rate : 47.8 kb/s
    Count of elements : 1336
    Stream size : 22.5 MiB (1%)
    Language : Thai
    Default : Yes
    Forced : No

    Text #4
    ID : 6
    Format : UTF-8
    Codec ID : S_TEXT/UTF8
    Codec ID/Info : UTF-8 Plain Text
    Duration : 1 h 5 min
    Bit rate : 119 b/s
    Count of elements : 668
    Stream size : 57.5 KiB (0%)
    Language : Thai
    Default : No
    Forced : No






    Download: filecondo
    29.70 GB Altered_Carbon_S1-2.folder.tar
    http://www.filecondo.com/dl.php?f=gdec9f1J7ExZ
    *****************
    Altered.Carbon.S02
    1
    http://www.filecondo.com/dl.php?f=Kdb6e01J7Fqa
    2
    http://www.filecondo.com/dl.php?f=Wa7f851J7Fr8
    3
    http://www.filecondo.com/dl.php?f=0371441J7Fs8
    4
    http://www.filecondo.com/dl.php?f=w3afa51J7Ft9
    5
    http://www.filecondo.com/dl.php?f=fa792e1J7Fuf
    6
    http://www.filecondo.com/dl.php?f=J36daa1J7Fv5
    7
    http://www.filecondo.com/dl.php?f=1c21e51J7FvY
    8
    http://www.filecondo.com/dl.php?f=0e20cd1J7Fx1

    Altered.Carbon.S01
    1
    http://www.filecondo.com/dl.php?f=R837121J7Fgw
    2
    http://www.filecondo.com/dl.php?f=Ob8eae1J7Fht
    3
    http://www.filecondo.com/dl.php?f=H9a5b81J7Fip
    4
    http://www.filecondo.com/dl.php?f=D01daf1J7Fjm
    5
    http://www.filecondo.com/dl.php?f=N5e3641J7Fkk
    6
    http://www.filecondo.com/dl.php?f=l9fb8a1J7Fln
    7
    http://www.filecondo.com/dl.php?f=U0e96b1J7Fmn
    8
    http://www.filecondo.com/dl.php?f=c386821J7Fnt
    9
    http://www.filecondo.com/dl.php?f=N3f1b81J7Fod
    10
    http://www.filecondo.com/dl.php?f=0230731J7Fpc
    Download: cornfile
    Altered.Carbon.S01E01.Out.of.the.Past.1080p.mkv - 1.6 GB
    Altered.Carbon.S01E02.Fallen.Angel.1080p.mkv - 1.5 GB
    Altered.Carbon.S01E03.In.a.Lonely.Place.1080p.mkv - 1.2 GB
    Altered.Carbon.S01E04.Force.of.Evil.1080p.mkv - 1.2 GB
    Altered.Carbon.S01E05.The.Wrong.Man.1080p.mkv - 1.1 GB
    Altered.Carbon.S01E06.Man.with.My.Face.1080p.mkv - 1.7 GB
    Altered.Carbon.S01E07.Nora.Inu.1080p.mkv - 1.9 GB
    Altered.Carbon.S01E08.Clash.by.Night.1080p.mkv - 2.8 GB
    Altered.Carbon.S01E09.Rage.in.Heaven.1080p.mkv - 1.2 GB
    Altered.Carbon.S01E10.The.Killers.1080p.mkv - 1.4 GB
    Altered.Carbon.S02E01.Phantom.Lady.1080p..mkv - 1.4 GB
    Altered.Carbon.S02E02.Payment.Deferred.1080p.mkv - 1.4 GB
    Altered.Carbon.S02E03.Nightmare.Alley.1080p..mkv - 1.5 GB
    Altered.Carbon.S02E04.Shadow.of.a.Doubt.1080p.mkv - 1.8 GB
    Altered.Carbon.S02E05.I.Wake.Up.Screaming.1080p.mk v - 2.8 GB
    Altered.Carbon.S02E06.Bury.Me.Dead.1080p..mkv - 1.9 GB
    Altered.Carbon.S02E07.Experiment.Perilous.1080p.mk v - 1.3 GB
    Altered.Carbon.S02E08.Broken.Angels.1080p..mkv - 1.9 GB

    Download: mekafile
    Altered.Carbon.S02
    1
    http://www.mekafile.com/dl.php?f=KVb545c5TB8Z
    2
    http://www.mekafile.com/dl.php?f=S5349cc5TBUw
    3
    http://www.mekafile.com/dl.php?f=lI15fdc5TCeQ
    4
    http://www.mekafile.com/dl.php?f=CS275bc5TC1D
    5
    http://www.mekafile.com/dl.php?f=aF0971c5TCmi
    6
    http://www.mekafile.com/dl.php?f=bt5dc6c5TCzv
    7
    http://www.mekafile.com/dl.php?f=8k9415c5TCso
    8
    http://www.mekafile.com/dl.php?f=Cjc56ec5TC8p

    Altered.Carbon.S01
    1
    http://www.mekafile.com/dl.php?f=FU3cf9c5TAo1
    2
    http://www.mekafile.com/dl.php?f=Mj97a9c5TAgU
    3
    http://www.mekafile.com/dl.php?f=Db374bc5TA9U
    4
    http://www.mekafile.com/dl.php?f=FZe306c5TAue
    5
    http://www.mekafile.com/dl.php?f=0q2a7ac5TA38
    6
    http://www.mekafile.com/dl.php?f=9Fd7e7c5TBAj
    7
    http://www.mekafile.com/dl.php?f=usc8ffc5TBmZ
    8
    http://www.mekafile.com/dl.php?f=4t3b75c5TB2T
    9
    http://www.mekafile.com/dl.php?f=Bv2410c5TBtj
    10
    http://www.mekafile.com/dl.php?f=70afaec5TBfS

  2. The Following 2 Users Say Thank You to Duckload.us For This Useful Post:

    jackjangri (03-14-2020), jangska (03-05-2020)

  3. #2
    Senior Member
    สมัครเมื่อ
    Jul 2012
    โพสต์
    6,620
    Thanks
    0
    Thanked 0 Times in 0 Posts
    ขอบคุณมากจ้า

+ ตอบกลับกระทู้

ข้อมูลกระทู้

Users Browsing this Thread

ในขณะนี้มี 1 ท่านดูกระทู้อยู่. (0 สมาชิกและ 1 ผู้เยี่ยมชม)

     

กฎการโพสต์ข้อความ

  • ท่าน ไม่สามารถ ตั้งกระทู้ใหม่ได้
  • ท่าน ไม่สามารถ ตอบกระทู้ได้
  • ท่าน ไม่สามารถ แนบไฟล์ได้
  • ท่าน ไม่สามารถ แก้ไขข้อความโพสต์ได้
  • BB code สถานะ เปิด
  • Smilies สถานะ เปิด
  • [IMG] สถานะ เปิด
  • HTML สถานะ ปิด