ซีรี่ย์จีน: Tang dynasty Tour
ชื่อภาษาไทย: ย้อนเวลามาป่วนวัง, เจาะเวลาราชวงศ์ถัง
ประเภท: Historical, Comedy, Adventure
นักแสดง: Wang Tian Chen, Karlina Zhang, Wang Wen Jie, Ken Chang, Anita Yuen, Li Guang
จำนวนตอน: 36
เขียนบทโดย: Yang Kai Lin, Long Xiao Shan
ผู้กำกับ: Zhu Dong Ning
ออกอากาศทางสถานีโทรทัศน์: MONOMAXXX
เริ่มออกอากาศ: -
เวลาออกอากาศ: -
นักแสดง:
Wang Tian Chen as Yun Ye / Yun Buqi
Zhang Jia Ning as Li Anlan / Li Ran
Ken Chang as Li Shimin
Anita Yuen as Empress Zhangsun
Wang Wen Jie as Li Chengqian
Yu Zi Yang as Lu Xinyue
Wang Yong Quan as Hou Junji
Hu Yun Hao as Zhangsun Chong
Huangyang Tian Tian as Xiao Nan
Sysopsis: ยุนเยี่ย (รับบทโดย หวังเทียนเฉิน) หนุ่มนักโบราณคดีเข้าไปสำรวจสุสานเก่าแก่ แต่จู่ๆ เกิดอุบัติเหตุพื้นถล่ม เมื่อรู้ตัวอีกทีหยุนเยี่ยก็โผล่มาอยู่ในยุคราชวงศ์ถ ังแล้ว! เขาใช้ความรู้ยุคสมัยใหม่สร้างชื่อจนได้เข้าไปอยู่ใน วังหลวง และได้พบกับหลี่อันหลาน (รับบทโดย จางเจียหนิง) องค์หญิงคนโตแห่งราชวงศ์ต้าถังที่มีใบหน้าคล้ายคนรัก ในยุคปัจจุบันของหยุนเยี่ย นอกจากนั้นยังตกกระไดพลอยโจนเข้าไปร่วมศึกสงครามแย่ง ชิงอำนาจของราชวงศ์ถังจนกลายเป็นเรื่องราวสุดป่วนตาม มา เชิญรับชมกันได้ในซีรี่ย์ Tang dynasty Tour ย้อนเวลามาป่วนวัง
Credit: franky

General
Unique ID : 325482633874072176533883593836407848414 (0xF4DDACD310DFDBAF0DF5171FD2047DDE)
Complete name : K:Tang dynasty Tour ย้อนเวลามาป่วนวังTang.dynasty.Tour.E09.1080p.WEB-DL.AAC.H.264.mkv
Format : Matroska
Format version : Version 4
File size : 1.09 GiB
Duration : 48 min 8 s
Overall bit rate mode : Variable
Overall bit rate : 3 254 kb/s
Encoded date : UTC 2020-02-29 08:43:06
Writing application : mkvmerge v19.0.0 ('Brave Captain') 64-bit
Writing library : libebml v1.3.5 + libmatroska v1.4.8

Video
ID : 1
Format : AVC
Format/Info : Advanced Video Codec
Format profile : [email protected]
Format settings : CABAC / 4 Ref Frames
Format settings, CABAC : Yes
Format settings, Reference fra : 4 frames
Codec ID : V_MPEG4/ISO/AVC
Duration : 48 min 8 s
Bit rate mode : Variable
Bit rate : 2 872 kb/s
Maximum bit rate : 4 000 kb/s
Width : 1 920 pixels
Height : 1 080 pixels
Display aspect ratio : 16:9
Frame rate mode : Constant
Frame rate : 25.000 FPS
Standard : NTSC
Color space : YUV
Chroma subsampling : 4:2:0
Bit depth : 8 bits
Scan type : Progressive
Bits/(Pixel*Frame) : 0.055
Stream size : 989 MiB (88%)
Default : Yes
Forced : No
Color range : Limited

Audio #1
ID : 2
Format : AAC LC
Format/Info : Advanced Audio Codec Low Complexity
Codec ID : A_AAC-2
Duration : 48 min 8 s
Bit rate : 192 kb/s
Channel(s) : 2 channels
Channel layout : L R
Sampling rate : 44.1 kHz
Frame rate : 43.066 FPS (1024 SPF)
Compression mode : Lossy
Delay relative to video : -40 ms
Stream size : 65.3 MiB (6%)
Language : Thai
Default : Yes
Forced : No

Audio #2
ID : 3
Format : AAC LC
Format/Info : Advanced Audio Codec Low Complexity
Codec ID : A_AAC-2
Duration : 48 min 8 s
Bit rate : 192 kb/s
Channel(s) : 2 channels
Channel layout : L R
Sampling rate : 44.1 kHz
Frame rate : 43.066 FPS (1024 SPF)
Compression mode : Lossy
Delay relative to video : -40 ms
Stream size : 65.3 MiB (6%)
Language : Chinese
Default : No
Forced : No



37.50 GB
http://www.filecondo.com/dl.php?f=L511351J95pc
Tang.dynasty.Tour.E20.1080p.WEB-DL.AAC.H.264.rar fix
http://www.filecondo.com/dl.php?f=hf16f81Jebh6