+ ตอบกลับกระทู้
สรุปผลการค้นหา 1 ถึง 3 จากทั้งหมด 3
  1. #1
    Administrators รูปส่วนตัว Duckload.us
    สมัครเมื่อ
    Dec 2010
    โพสต์
    114,512
    Thanks
    7
    Thanked 120,851 Times in 54,337 Posts

    Lightbulb [ญี่ปุ่น]-[cbj-raws] โดราเอมอน ภาคพิเศษ ตอนที่ 1-25 Doraemon Movies 1980-2004-Encode.H.264.1080p. [อัดจาก TV]-[พากย์ไทย]

    โดราเอมอน เดอะมูฟวี่ Doraemon The Movie (1980-2004) รวมภาคพิเศษในโอกาสครบรอบ 25ปี จำนวน 25 ตอน



    เสียงพากย์ ญี่ปุ่น/ไทย

    โดราเอมอนฉบับภาพยนตร์ (อังกฤษ: Doraemon the movies) เป็นภาพยนตร์การ์ตูนเรื่องยาวฉบับพิเศษ สร้างโดยบริษัทผลิตภาพยนตร์โตโฮ แอนิเมชั่น สตูดิโอ พิคเจอร์ส เพื่อจัดฉายในโรงภาพยนตร์ปีละหนึ่งตอนในช่วงเดือนมีน าคมเป็นประจำทุกปี ในประเทศญี่ปุ่นเริ่มตั้งแต่ ค.ศ. 1980 (พ.ศ. 2523) ตอนไดโนเสาร์ของโนบิตะ ในปี พ.ศ. 2548 ยังมีการฉลองครบรอบ 25 ปีของการฉายโดราเอมอนฉบับภาพยนตร์

    และในเวลาที่ผ่านมีได้มีการ ReMastered จากฟิล์มภาพยนตร์ใหม่ เพื่อฉายในระบบ h-i-d-efinition ในประเทศญี่ปุ่น ในสัดส่วน 16:9 ซึ่งก็คือต้นฉบับของไฟล์นี้


    Video: MPEG4 Video (H264) 1920x1080 23.976fps 3762kbps [V: h264 high 4:2:2 L5.1, yuv422p, 1920x1080, 3762 kb/s]
    Audio: AAC 44100Hz stereo 192kbps [A: SoundHandler [jpn] (aac lc, 44100 Hz, stereo, 192 kb/s)]
    Audio: AAC 48000Hz stereo 128kbps [A: SoundHandler [tha] (aac lc, 48000 Hz, stereo, 128 kb/s)]

    medium details
    Code:
    General
    Complete name                  : C:torrent[cbj-raws] Doraemon Movie  1980~2004 H264 1080p.TH[cbj-raws] Doraemon Movie 1980 [1st]  (ไดโนเสาร์ของโนบิตะ Nobita no Kyoryu) - (WOWOW Prime 1920x1080 H264)  TH.mp4
    Format                         : MPEG-4
    Format profile                 : Base Media
    Codec ID                       : isom (isom/iso2/avc1/mp41)
    File size                      : 2.64 GiB
    Duration                       : 1 h 32 min
    Overall bit rate               : 4 088 kb/s
    Writing application            : Lavf58.27.102
    
    Video
    ID                             : 1
    Format                         : AVC
    Format/Info                    : Advanced Video Codec
    Format profile                 : High 4:2:[email protected]
    Format settings                : CABAC / 4 Ref Frames
    Format settings, CABAC         : Yes
    Format settings, Reference fra : 4 frames
    Codec ID                       : avc1
    Codec ID/Info                  : Advanced Video Coding
    Duration                       : 1 h 32 min
    Bit rate                       : 3 763 kb/s
    Width                          : 1 920 pixels
    Height                         : 1 080 pixels
    Display aspect ratio           : 16:9
    Frame rate mode                : Constant
    Frame rate                     : 23.976 (24000/1001) FPS
    Color space                    : YUV
    Chroma subsampling             : 4:2:2
    Bit depth                      : 8 bits
    Scan type                      : Progressive
    Bits/(Pixel*Frame)             : 0.076
    Stream size                    : 2.43 GiB (92%)
    Writing library                : x264 core 157 r2970 5493be8
    Encoding settings              : cabac=1 / ref=3 / deblock=1:0:0 /  analyse=0x3:0x113 / me=hex / subme=7 / psy=1 / psy_rd=1.00:0.00 /  mixed_ref=1 / me_range=16 / chroma_me=1 / trellis=1 / 8x8dct=1 / cqm=0 /  deadzone=21,11 / fast_pskip=1 / chroma_qp_offset=-2 / threads=24 /  lookahead_threads=4 / sliced_threads=0 / nr=0 / decimate=1 /  interlaced=0 / bluray_compat=0 / constrained_intra=0 / bframes=3 /  b_pyramid=2 / b_adapt=1 / b_bias=0 / direct=1 / weightb=1 / open_gop=0 /  weightp=2 / keyint=250 / keyint_min=23 / scenecut=40 / intra_refresh=0 /  rc_lookahead=40 / rc=crf / mbtree=1 / crf=21.9 / qcomp=0.60 / qpmin=0 /  qpmax=69 / qpstep=4 / ip_ratio=1.40 / aq=1:1.30
    Color range                    : Limited
    Color primaries                : BT.709
    Transfer characteristics       : BT.709
    Matrix coefficients            : BT.709
    Menus                          : 4
    Codec configuration box        : avcC
    
    Audio #1
    ID                             : 2
    Format                         : AAC LC
    Format/Info                    : Advanced Audio Codec Low Complexity
    Codec ID                       : mp4a-40-2
    Duration                       : 1 h 32 min
    Bit rate mode                  : Constant
    Bit rate                       : 192 kb/s
    Channel(s)                     : 2 channels
    Channel layout                 : L R
    Sampling rate                  : 44.1 kHz
    Frame rate                     : 43.066 FPS (1024 SPF)
    Compression mode               : Lossy
    Stream size                    : 127 MiB (5%)
    Language                       : Japanese
    Default                        : Yes
    Alternate group                : 1
    Menus                          : 4
    
    Audio #2
    ID                             : 3
    Format                         : AAC LC
    Format/Info                    : Advanced Audio Codec Low Complexity
    Codec ID                       : mp4a-40-2
    Duration                       : 1 h 32 min
    Bit rate mode                  : Constant
    Bit rate                       : 129 kb/s
    Channel(s)                     : 2 channels
    Channel layout                 : L R
    Sampling rate                  : 48.0 kHz
    Frame rate                     : 46.875 FPS (1024 SPF)
    Compression mode               : Lossy
    Stream size                    : 85.1 MiB (3%)
    Language                       : Thai
    Default                        : No
    Alternate group                : 1
    Menus                          : 4
    
    and chapter






    Modified by me

    1
    http://www.filecondo.com/dl.php?f=56f28f1JcmFm
    2
    http://www.filecondo.com/dl.php?f=29c3c41JcmGh
    3
    http://www.filecondo.com/dl.php?f=J75b5d1JcmHi
    4
    http://www.filecondo.com/dl.php?f=Td636e1JcmJc
    5
    http://www.filecondo.com/dl.php?f=N689521JcmKb
    6
    http://www.filecondo.com/dl.php?f=zbd4631JcmL8
    7
    http://www.filecondo.com/dl.php?f=Vc13361JcmM7
    8
    http://www.filecondo.com/dl.php?f=Ba7c701JcmN4
    9
    http://www.filecondo.com/dl.php?f=xdd04c1JcmOZ
    10
    http://www.filecondo.com/dl.php?f=E5cc8d1JcmQ1
    11
    http://www.filecondo.com/dl.php?f=b3c0291JcmCq
    12
    http://www.filecondo.com/dl.php?f=Pac1701JcmQW
    13
    http://www.filecondo.com/dl.php?f=R50ee81JcmRV
    14
    http://www.filecondo.com/dl.php?f=f1b1631JcmSS
    15
    http://www.filecondo.com/dl.php?f=Y70a1d1JcmTR
    16
    http://www.filecondo.com/dl.php?f=l826201JcmUO
    17
    http://www.filecondo.com/dl.php?f=V4ae201JcmBr
    18
    http://www.filecondo.com/dl.php?f=i63c251JcmEn
    19
    http://www.filecondo.com/dl.php?f=I73d3d1JcmVM
    20
    http://www.filecondo.com/dl.php?f=p58b671JcmWL
    21
    http://www.filecondo.com/dl.php?f=f77e391JcmXI
    22
    http://www.filecondo.com/dl.php?f=le11ec1Jcn1C
    23
    http://www.filecondo.com/dl.php?f=269bbd1JcmYF
    24
    http://www.filecondo.com/dl.php?f=Ve18e01JcmZC
    25
    http://www.filecondo.com/dl.php?f=w131911Jcn0A

  2. #2
    Junior Member
    สมัครเมื่อ
    Sep 2019
    โพสต์
    8
    Thanks
    0
    Thanked 0 Times in 0 Posts
    โหลดได้แล้วครับตอนนี้เหลือตอนที่ 4 9 24 รออยู่นะครับ ขอบคุณมากครับ
    แก้ไขครั้งล่าสุดโดย Pun442000 : 04-17-2020 เมื่อ 01:55 PM

  3. #3
    Junior Member
    สมัครเมื่อ
    Oct 2015
    โพสต์
    6
    Thanks
    0
    Thanked 0 Times in 0 Posts
    บางไฟล์โหลดไม่ได้ รบกวนแก้ไขให้หน่อยนะครับ ขอบคุณครับ

+ ตอบกลับกระทู้

ข้อมูลกระทู้

Users Browsing this Thread

ในขณะนี้มี 1 ท่านดูกระทู้อยู่. (0 สมาชิกและ 1 ผู้เยี่ยมชม)

     

กฎการโพสต์ข้อความ

  • ท่าน ไม่สามารถ ตั้งกระทู้ใหม่ได้
  • ท่าน ไม่สามารถ ตอบกระทู้ได้
  • ท่าน ไม่สามารถ แนบไฟล์ได้
  • ท่าน ไม่สามารถ แก้ไขข้อความโพสต์ได้
  • BB code สถานะ เปิด
  • Smilies สถานะ เปิด
  • [IMG] สถานะ เปิด
  • HTML สถานะ ปิด