+ ตอบกลับกระทู้
สรุปผลการค้นหา 1 ถึง 3 จากทั้งหมด 3
  1. #1
    Administrators รูปส่วนตัว Duckload.us
    สมัครเมื่อ
    Dec 2010
    โพสต์
    112,526
    Thanks
    7
    Thanked 118,300 Times in 53,579 Posts

    Question [ฝรั่ง]-Dolittle ด็อกเตอร์ ดูลิตเติ้ล 2020.1080p.HDRip.ไทยโรง ซับไทย-WEB-DL.H.264.1080p. [Modified]-[พากย์ไทยโรง บรรยายไทย]



    Dolittle หลังจากสูญเสียภรรยาเมื่อเจ็ดปีก่อน ด็อกเตอร์ จอห์น ดูลิตเติ้ล (ดาวนีย์) ผู้มีความแปลกไม่เหมือนใครและสร้างชื่อเสียงเป็นหมอแ ละสัตว์แพทย์ของสมเด็จพระราชินีวิคตอเรียแห่งอังกฤษ เขาใช้ชีวิตอย่างสันโดษอยู่หลังกำแพงสูง ซึ่งเป็นที่ตั้งของคฤหาสน์ดูลิตเติ้ลกับสวนสัตว์ที่ม ีสัตว์หายาก แต่เมื่อพระราชินี (เจสซี่ บัคลีย์ จาก Wild Rose) มีพระอาการประชวรอย่างสาหัส ดูลิตเติ้ลจึงต้องออกเดินทางผจญภัยไปยังเกาะในตำนาน เพื่อหาวิธีรักษา พร้อมทั้งรื้อฟื้นสติปัญญาและความกล้าหาญ ต้องต่อสู้กับศัตรูและค้นพบสิ่งมีชีวิตมหัศจรรย์

    คุณหมอออกเดินทางไปกับนักเดินทางวัยเยาว์ (แฮร์รี่ คอลเล็ตต์) และเหล่าเพื่อนที่เป็นสัตว์ดุร้าย อาทิ ลิงกอริลลาผู้มีความกังวล (รามี มาเล็ก เจ้าของรางวัลออสการ์), เป็ดสมองนก ผู้กระตือรือล้น (เจ้าของรางวัลออสการ์ ออคตาเวีย สเปนเซอร์), นกกระจอกเทศจอมถากถาง (คูเมล นันจานี จาก The Big Sick) หมีขั้วโลกที่มองโลกในแง่ดี (จอห์น ซีนา จาก Bumblebee) และนกแก้วหัวแข็ง (เจ้าของรางวัลออสการ์ เอ็มม่า ธอมป์สัน) ซึ่งทำหน้าที่เป็นที่ปรึกษาและเป็นสัตว์ที่ดูลิตเติ้ ลที่ไว้วางใจและเชื่อถือมากที่สุด!

    Code:
    Format                      : Matroska
    Format version              : Version 4 / Version 2
    File size                   : 3.87 GiB
    Duration                    : 1h 33mn
    Overall bit rate            : 5 952 Kbps
    Movie name                  : [email protected]
    Encoded date                : UTC 2020-03-20 14:49:31
    Writing application         : mkvmerge v38.0.0 ('The Silent Type') 64-bit
    Writing library             : libebml v1.3.9 + libmatroska v1.5.2
    
    Video
    ID                          : 1
    Format                      : AVC
    Format/Info                 : Advanced Video Codec
    Format profile              : [email protected]
    Format settings, CABAC      : Yes
    Format settings, ReFrames   : 4 frames
    Codec ID                    : V_MPEG4/ISO/AVC
    Duration                    : 1h 29mn
    Bit rate                    : 5 500 Kbps
    Width                       : 1 920 pixels
    Height                      : 1 040 pixels
    Display aspect ratio        : 1.85:1
    Frame rate mode             : Constant
    Frame rate                  : 30.000 fps
    Color space                 : YUV
    Chroma subsampling          : 4:2:0
    Bit depth                   : 8 bits
    Scan type                   : Progressive
    Bits/(Pixel*Frame)          : 0.092
    Stream size                 : 3.45 GiB (89%)
    Title                       : [email protected]
    Writing library             : x264 core 148 r2748 97eaef2
    Encoding settings           : cabac=1 / ref=4 / deblock=1:0:0 / analyse=0x3:0x113 / me=umh / subme=9 / psy=1 / psy_rd=1.00:0.00 / mixed_ref=1 / me_range=16 / chroma_me=1 / trellis=2 / 8x8dct=1 / cqm=0 / deadzone=21,11 / fast_pskip=1 / chroma_qp_offset=-2 / threads=72 / lookahead_threads=6 / sliced_threads=0 / nr=0 / decimate=1 / interlaced=0 / bluray_compat=0 / constrained_intra=0 / bframes=3 / b_pyramid=2 / b_adapt=2 / b_bias=0 / direct=3 / weightb=1 / open_gop=0 / weightp=2 / keyint=250 / keyint_min=25 / scenecut=40 / intra_refresh=0 / rc_lookahead=50 / rc=abr / mbtree=1 / bitrate=5500 / ratetol=1.0 / qcomp=0.60 / qpmin=0 / qpmax=69 / qpstep=4 / ip_ratio=1.40 / aq=1:1.00
    Language                    : English
    Default                     : Yes
    Forced                      : No
    
    Audio #1
    ID                          : 2
    Format                      : AC-3
    Format/Info                 : Audio Coding 3
    Mode extension              : CM (complete main)
    Format settings, Endianness : Big
    Codec ID                    : A_AC3
    Duration                    : 1h 29mn
    Bit rate mode               : Constant
    Bit rate                    : 384 Kbps
    Channel(s)                  : 2 channels
    Channel positions           : Front: L R
    Sampling rate               : 48.0 KHz
    Frame rate                  : 31.250 fps (1536 spf)
    Compression mode            : Lossy
    Delay relative to video     : -31ms
    Stream size                 : 247 MiB (6%)
    Title                       : ThaiRong 2.0 @ 384 kb/s By Mr.Captain
    Language                    : Thai
    Default                     : Yes
    Forced                      : Yes
    
    Audio #2
    ID                          : 3
    Format                      : AAC
    Format/Info                 : Advanced Audio Codec
    Format profile              : LC
    Codec ID                    : A_AAC
    Duration                    : 1h 29mn
    Bit rate                    : 256 Kbps
    Channel(s)                  : 2 channels
    Channel positions           : Front: L R
    Sampling rate               : 48.0 KHz
    Frame rate                  : 46.875 fps (1024 spf)
    Compression mode            : Lossy
    Delay relative to video     : -31ms
    Stream size                 : 164 MiB (4%)
    Title                       : English 2.0 @ 256 kb/s
    Language                    : English
    Default                     : No
    Forced                      : No
    
    Text #1
    ID                          : 4
    Format                      : UTF-8
    Codec ID                    : S_TEXT/UTF8
    Codec ID/Info               : UTF-8 Plain Text
    Duration                    : 1h 32mn
    Bit rate                    : 140 bps
    Count of elements           : 1364
    Stream size                 : 95.2 KiB (0%)
    Language                    : Thai
    Default                     : Yes
    Forced                      : No
    
    Text #2
    ID                          : 5
    Format                      : PGS
    Muxing mode                 : zlib
    Codec ID                    : S_HDMV/PGS
    Codec ID/Info               : Picture based subtitle format used on BDs/HD-DVDs
    Duration                    : 1h 32mn
    Bit rate                    : 58.6 Kbps
    Count of elements           : 2728
    Stream size                 : 38.8 MiB (1%)
    Language                    : Thai
    Default                     : No
    Forced                      : No



    Download: cornfile
    http://cornfile.com/fh3nouwfjn8b
    Download: mekafile
    http://www.mekafile.com/dl.php?f=ho81fdc6MIpU

  2. The Following User Says Thank You to Duckload.us For This Useful Post:

    Tatum03 (03-22-2020)

  3. #2
    Senior Member
    สมัครเมื่อ
    Oct 2013
    ที่อยู่
    Thailand
    โพสต์
    1,281
    Thanks
    1,153
    Thanked 0 Times in 0 Posts
    ขอบคุณมาก

  4. #3
    Senior Member
    สมัครเมื่อ
    Jun 2014
    โพสต์
    2,987
    Thanks
    0
    Thanked 0 Times in 0 Posts
    ขอบคุณครับ

+ ตอบกลับกระทู้

ข้อมูลกระทู้

Users Browsing this Thread

ในขณะนี้มี 1 ท่านดูกระทู้อยู่. (0 สมาชิกและ 1 ผู้เยี่ยมชม)

     

กฎการโพสต์ข้อความ

  • ท่าน ไม่สามารถ ตั้งกระทู้ใหม่ได้
  • ท่าน ไม่สามารถ ตอบกระทู้ได้
  • ท่าน ไม่สามารถ แนบไฟล์ได้
  • ท่าน ไม่สามารถ แก้ไขข้อความโพสต์ได้
  • BB code สถานะ เปิด
  • Smilies สถานะ เปิด
  • [IMG] สถานะ เปิด
  • HTML สถานะ ปิด