+ ตอบกลับกระทู้
สรุปผลการค้นหา 1 ถึง 5 จากทั้งหมด 5
  1. #1
    Administrators รูปส่วนตัว Duckload.us
    สมัครเมื่อ
    Dec 2010
    โพสต์
    112,526
    Thanks
    7
    Thanked 118,303 Times in 53,580 Posts

    Angry (ฝรั่ง.ใหม่.ไทยมาสเตอร์)-THE CURRENT WAR (2019) สงครามไฟฟ้า คนขั้วอัจฉริยะ-[BluRay.1080p][Sound:Eng 5.1/Thai AC3 2.0][SUB:Eng.PGS]




    เมื่ออัจฉริยะนักประดิษฐ์ โทมัส อัลวา เอดิสัน (เบเนดิคท์ คัมเบอร์แบตช์) และเจ้าพ่อนายทุนอย่าง เจพี มอร์แกน (แมทธิว แม็คฟาเดียน) จับมือกันเพื่อผลักดันการใช้ไฟฟ้ากระแสตรง (DC) พวกเขาต้องเผชิญกับการต่อต้านทฤษฎีจาก จอร์จ เวสติงเฮ้าส์ (ไมเคิล แชนนอน) วิศวกร นักประดิษฐ์ และนักธุรกิจชาวอเมริกัน ผู้สนับสนุนทฤษฎีไฟฟ้ากระแสสลับ (AC) ผู้ซึ่งได้รับการช่วยเหลือจาก นิโคลา เทสลา (นิโคลัสโฮลท์) อีกหนึ่งอัจฉริยะนักประดิษฐ์ผู้เกิดในยุคเดียวกันกับ เอดิสัน

    Format : Matroska
    Format version : Version 4
    File size : 4.40 GiB
    Duration : 1 h 48 min
    Overall bit rate : 5 806 kb/s
    Movie name : The.Current.War.Director's.Cut.2017.1080p.BluRay._ ©Gold Cup™

    Video
    ID : 1
    Format : AVC
    Format/Info : Advanced Video Codec
    Format profile : [email protected]
    Format settings : CABAC / 1 Ref Frames
    Format settings, CABAC : Yes
    Format settings, Reference : 1 frame
    Format settings, GOP : M=1, N=25
    Codec ID : V_MPEG4/ISO/AVC
    Duration : 1 h 48 min
    Bit rate mode : Constant
    Bit rate : 4 500 kb/s
    Width : 1 920 pixels
    Height : 800 pixels
    Display aspect ratio : 2.40:1
    Frame rate mode : Constant
    Frame rate : 29.970 (30000/1001) FPS
    Color space : YUV
    Chroma subsampling : 4:2:0
    Bit depth : 8 bits
    Scan type : Progressive
    Bits/(Pixel*Frame) : 0.098
    Stream size : 3.41 GiB (77%)
    Title : The.Current.War.Director's.Cut.2017.1080p.BluRay._ ©Gold Cup™
    Language : English
    Default : Yes
    Forced : No

    Audio #1
    ID : 2
    Format : AC-3
    Format/Info : Audio Coding 3
    Commercial name : Dolby Digital
    Codec ID : A_AC3
    Duration : 1 h 48 min
    Bit rate mode : Constant
    Bit rate : 640 kb/s
    Channel(s) : 2 channels
    Channel layout : L R
    Sampling rate : 44.1 kHz
    Frame rate : 28.711 FPS (1536 SPF)
    Compression mode : Lossy
    Stream size : 497 MiB (11%)
    Title : 2.0 AC3 Th Mst 640K 497M_©Gold Cup™
    Language : Thai
    Service kind : Complete Main
    Default : Yes
    Forced : No

    Audio #2
    ID : 3
    Format : AC-3
    Format/Info : Audio Coding 3
    Commercial name : Dolby Digital
    Codec ID : A_AC3
    Duration : 1 h 48 min
    Bit rate mode : Constant
    Bit rate : 640 kb/s
    Channel(s) : 6 channels
    Channel layout : L R C LFE Ls Rs
    Sampling rate : 44.1 kHz
    Frame rate : 28.711 FPS (1536 SPF)
    Compression mode : Lossy
    Stream size : 497 MiB (11%)
    Title : 5.1 AC3 Eng 640K 497M_©Gold Cup™
    Language : English
    Service kind : Complete Main
    Default : No
    Forced : No

    Text #1
    ID : 4
    Format : PGS
    Muxing mode : zlib
    Codec ID : S_HDMV/PGS
    Codec ID/Info : Picture based subtitle format used on BDs/HD-DVDs
    Duration : 1 h 37 min
    Bit rate : 25.5 kb/s
    Count of elements : 2544
    Stream size : 17.8 MiB (0%)
    Title : EN.PGS.YELLOW.72-47-10_©Gold Cup™
    Language : English
    Default : Yes
    Forced : No

    Text #2
    ID : 5
    Format : PGS
    Muxing mode : zlib
    Codec ID : S_HDMV/PGS
    Codec ID/Info : Picture based subtitle format used on BDs/HD-DVDs
    Duration : 1 h 37 min
    Bit rate : 24.1 kb/s
    Count of elements : 2486
    Stream size : 16.8 MiB (0%)
    Title : EN.SDH.PGS.PURPLE.72-47-10_©Gold Cup™
    Language : English
    Default : No
    Forced : No






    Download: cornfile
    4.4 GB
    http://cornfile.com/a5zcpkh9iaup
    4.4 GB
    http://cornfile.com/u1dhc6ykdun3
    2.4 GB http://cornfile.com/l6649m93nl2o
    Download: mekafile
    meka อัพไม่ได้ครับ หนังค่าย M

  2. The Following 6 Users Say Thank You to Duckload.us For This Useful Post:

    amorn wichian (03-27-2020), bigbang06 (03-23-2020), gaszolineskywalker (03-27-2020), Jodz14 (03-23-2020), noi54 (03-25-2020), Tatum03 (03-23-2020)

  3. #2
    Senior Member
    สมัครเมื่อ
    Jun 2014
    โพสต์
    2,992
    Thanks
    0
    Thanked 0 Times in 0 Posts
    ขอบคุณครับ

  4. #3
    Senior Member
    สมัครเมื่อ
    Oct 2013
    ที่อยู่
    Thailand
    โพสต์
    1,281
    Thanks
    1,153
    Thanked 0 Times in 0 Posts
    ขอบคุณมาก

  5. #4
    Senior Member
    สมัครเมื่อ
    Oct 2012
    โพสต์
    920
    Thanks
    1,858
    Thanked 0 Times in 0 Posts
    ขอบคุณครับ

  6. #5
    Senior Member
    สมัครเมื่อ
    Jul 2013
    โพสต์
    319
    Thanks
    0
    Thanked 0 Times in 0 Posts
    ขอบคุณครับผม

+ ตอบกลับกระทู้

ข้อมูลกระทู้

Users Browsing this Thread

ในขณะนี้มี 1 ท่านดูกระทู้อยู่. (0 สมาชิกและ 1 ผู้เยี่ยมชม)

     

กฎการโพสต์ข้อความ

  • ท่าน ไม่สามารถ ตั้งกระทู้ใหม่ได้
  • ท่าน ไม่สามารถ ตอบกระทู้ได้
  • ท่าน ไม่สามารถ แนบไฟล์ได้
  • ท่าน ไม่สามารถ แก้ไขข้อความโพสต์ได้
  • BB code สถานะ เปิด
  • Smilies สถานะ เปิด
  • [IMG] สถานะ เปิด
  • HTML สถานะ ปิด