+ ตอบกลับกระทู้
สรุปผลการค้นหา 1 ถึง 2 จากทั้งหมด 2
  1. #1
    Administrators รูปส่วนตัว Duckload.us
    สมัครเมื่อ
    Dec 2010
    โพสต์
    115,769
    Thanks
    7
    Thanked 122,175 Times in 54,826 Posts

    Question [ฝรั่ง]-((>x265<)) The Peanut Butter Falcon (2019) : คู่ซ่าบ้าล่าฝัน [พากย์ไทย 5.1 + เสียงอังกฤษ DTS-HD MA 5.1]-[บรรยายไทย + อังกฤษ]-[เสียงไทย + ซับไทย From MASTER + ซับ PGS คมชัด]



    The Peanut Butter Falcon_(2019)
    ทายเลอร์คนจรหมอนหมิ่นที่หนีคดีความมา และได้พบกับเด็กหนุ่มดาวน์ซินโดรมที่หนีออกจากสถานดู แล
    เพราะใฝ่ฝันอยากเป็นนักมวยปล้ำอาชีพที่มีชื่อเสียง ทำให้ทั้งคู่ได้ออกผจญภัยร่วมกัน
    ระหว่างทางทั้งคู่ได้พบกับพยาบาลสาวแสนน่ารักชื่ออีเ ล็นเนอร์ ที่พยายามตามหาเด็กหนุ่มให้กลับไปยังสถานดูแลผู้ป่วย
    แต่กลับกลายเป็นว่าเธอต้องออกร่วมผจญภัยไปกับทั้งคู่ บนแม่น้ำมิสซิสซิปปี้ด้วยกัน เพื่อไปยังโรงเรียนสอนมวยปล้ำ
    ที่ดูแลโดยอดีตนักมวยปล้ำตามที่เด็กดาวน์ซินโดรมตั้ง ใจไว้!!!

    Code:
    Format                                   : Matroska
    Format version                           : Version 4
    File size                                : 7.38 GiB
    Duration                                 : 1 h 36 min
    Overall bit rate mode                    : Variable
    Overall bit rate                         : 10.9 Mb/s
    Movie name                               : The.Peanut.Butter.Falcon.2019.DTS-HD MA [email protected]
    
    Video
    ID                                       : 1
    Format                                   : HEVC
    Format/Info                              : High Efficiency Video Coding
    Format profile                           : Main [email protected]@High
    HDR format                               : SMPTE ST 2086
    Codec ID                                 : V_MPEGH/ISO/HEVC
    Duration                                 : 1 h 36 min
    Bit rate                                 : 6 676 kb/s
    Width                                    : 1 920 pixels
    Height                                   : 804 pixels
    Display aspect ratio                     : 2.40:1
    Frame rate mode                          : Constant
    Frame rate                               : 23.976 (24000/1001) FPS
    Color space                              : YUV
    Chroma subsampling                       : 4:2:0
    Bit depth                                : 10 bits
    Bits/(Pixel*Frame)                       : 0.180
    Stream size                              : 4.52 GiB (61%)
    Title                                    : The.Peanut.Butter.Falcon.2019.DTS-HD MA [email protected]
    Writing library                          : x265 3.0_Au+4-dcbec33bfb0f:[Windows][GCC 8.2.1][64 bit] 10bit
    Encoding settings                        : cpuid=1111039 / frame-threads=5 / numa-pools=44,44 / wpp / pmode / pme / no-psnr / no-ssim / log-level=2 / input-csp=1 / input-res=1920x804 / interlace=0 / total-frames=139468 / level-idc=51 / high-tier=1 / uhd-bd=0 / ref=5 / no-allow-non-conformance / repeat-headers / annexb / no-aud / no-hrd / info / hash=0 / no-temporal-layers / no-open-gop / min-keyint=24 / keyint=240 / gop-lookahead=0 / bframes=6 / b-adapt=2 / b-pyramid / bframe-bias=0 / rc-lookahead=40 / lookahead-slices=0 / scenecut=40 / radl=0 / no-splice / no-intra-refresh / ctu=32 / min-cu-size=8 / no-rect / no-amp / max-tu-size=32 / tu-inter-depth=3 / tu-intra-depth=3 / limit-tu=4 / rdoq-level=2 / dynamic-rd=0.00 / no-ssim-rd / signh-i-d-e / no-tskip / nr-intra=0 / nr-inter=0 / no-constrained-intra / no-strong-intra-smoothing / max-merge=4 / limit-refs=1 / limit-modes / me=3 / subme=4 / merange=25 / temporal-mvp / weightp / weightb / no-analyze-src-pics / deblock=-3:-3 / no-sao / no-sao-non-deblock / rd=6 / no-early-skip / rskip / no-fast-intra / no-tskip-fast / no-cu-lossless / b-intra / no-splitrd-skip / rdpenalty=0 / psy-rd=2.00 / psy-rdoq=1.00 / no-rd-refine / no-lossless / cbqpoffs=0 / crqpoffs=0 / rc=crf / crf=17.0 / qcomp=0.65 / qpstep=4 / stats-write=0 / stats-read=0 / vbv-maxrate=80000 / vbv-bufsize=80000 / vbv-init=0.9 / crf-max=0.0 / crf-min=0.0 / ipratio=1.40 / pbratio=1.30 / aq-mode=2 / aq-strength=0.85 / cutree / zone-count=0 / no-strict-cbr / qg-size=32 / no-rc-grain / qpmax=69 / qpmin=0 / no-const-vbv / sar=1 / overscan=0 / videoformat=5 / range=0 / colorprim=1 / transfer=1 / colormatrix=1 / chromaloc=0 / display-window=0 / master-display=G(15000,30000)B(7500,3000)R(32000,16500)WP(15635,16450)L(10000000,1) / max-cll=1000,1 / min-luma=0 / max-luma=1023 / log2-max-poc-lsb=8 / vui-timing-info / vui-hrd-info / slices=1 / no-opt-qp-pps / no-opt-ref-list-length-pps / no-multi-pass-opt-rps / scenecut-bias=0.05 / no-opt-cu-delta-qp / no-aq-motion / hdr / no-hdr-opt / no-dhdr10-opt / no-idr-recovery-sei / analysis-reuse-level=5 / scale-factor=0 / refine-intra=0 / refine-inter=0 / refine-mv=0 / refine-ctu-distortion=0 / no-limit-sao / ctu-info=0 / no-lowpass-dct / refine-analysis-type=0 / copy-pic=1 / max-ausize-factor=1.0 / no-dynamic-refine / no-single-sei / no-hevc-aq / qp-adaptation-range=1.00
    Language                                 : English
    Default                                  : Yes
    Forced                                   : No
    Color range                              : Limited
    Color primaries                          : BT.709
    Transfer characteristics                 : BT.709
    Matrix coefficients                      : BT.709
    Mastering display color primaries        : BT.709
    Mastering display luminance              : min: 0.0001 cd/m2, max: 1000 cd/m2
    Maximum Content Light Level              : 1000 cd/m2
    Maximum Frame-Average Light Level        : 1 cd/m2
    
    Audio #1
    ID                                       : 2
    Format                                   : AC-3
    Format/Info                              : Audio Coding 3
    Commercial name                          : Dolby Digital
    Codec ID                                 : A_AC3
    Duration                                 : 1 h 36 min
    Bit rate mode                            : Constant
    Bit rate                                 : 448 kb/s
    Channel(s)                               : 6 channels
    Channel layout                           : L R C LFE Ls Rs
    Sampling rate                            : 48.0 kHz
    Frame rate                               : 31.250 FPS (1536 SPF)
    Compression mode                         : Lossy
    Stream size                              : 311 MiB (4%)
    Title                                    : Thai DVD Master
    Language                                 : Thai
    Service kind                             : Complete Main
    Default                                  : Yes
    Forced                                   : Yes
    
    Audio #2
    ID                                       : 3
    Format                                   : DTS XLL
    Format/Info                              : Digital Theater Systems
    Commercial name                          : DTS-HD Master Audio
    Codec ID                                 : A_DTS
    Duration                                 : 1 h 36 min
    Bit rate mode                            : Variable
    Bit rate                                 : 3 656 kb/s
    Channel(s)                               : 6 channels
    Channel layout                           : C L R Ls Rs LFE
    Sampling rate                            : 48.0 kHz
    Frame rate                               : 93.750 FPS (512 SPF)
    Bit depth                                : 24 bits
    Compression mode                         : Lossless
    Stream size                              : 2.48 GiB (34%)
    Title                                    : English DTS-HD MA 5.1
    Language                                 : English
    Default                                  : No
    Forced                                   : No
    
    Text #1
    ID                                       : 4
    Format                                   : VobSub
    Muxing mode                              : zlib
    Codec ID                                 : S_VOBSUB
    Codec ID/Info                            : Picture based subtitle format used on DVDs
    Duration                                 : 1 h 31 min
    Bit rate                                 : 3 407 b/s
    Count of elements                        : 1437
    Stream size                              : 2.22 MiB (0%)
    Title                                    : Thai 720p
    Language                                 : Thai
    Default                                  : No
    Forced                                   : No
    
    Text #2
    ID                                       : 5
    Format                                   : VobSub
    Muxing mode                              : zlib
    Codec ID                                 : S_VOBSUB
    Codec ID/Info                            : Picture based subtitle format used on DVDs
    Duration                                 : 1 h 31 min
    Bit rate                                 : 5 486 b/s
    Count of elements                        : 1437
    Stream size                              : 3.58 MiB (0%)
    Title                                    : Thai 1080p
    Language                                 : Thai
    Default                                  : Yes
    Forced                                   : Yes
    
    Text #3
    ID                                       : 6
    Format                                   : VobSub
    Muxing mode                              : zlib
    Codec ID                                 : S_VOBSUB
    Codec ID/Info                            : Picture based subtitle format used on DVDs
    Duration                                 : 1 h 31 min
    Bit rate                                 : 5 459 b/s
    Count of elements                        : 1437
    Stream size                              : 3.56 MiB (0%)
    Title                                    : Thai 1080p Yellow
    Language                                 : Thai
    Default                                  : No
    Forced                                   : No
    
    Text #4
    ID                                       : 7
    Format                                   : VobSub
    Muxing mode                              : zlib
    Codec ID                                 : S_VOBSUB
    Codec ID/Info                            : Picture based subtitle format used on DVDs
    Duration                                 : 1 h 31 min
    Bit rate                                 : 5 478 b/s
    Count of elements                        : 1437
    Stream size                              : 3.57 MiB (0%)
    Title                                    : Thai 1080p Out
    Language                                 : Thai
    Default                                  : No
    Forced                                   : No
    
    Text #5
    ID                                       : 8
    Format                                   : VobSub
    Muxing mode                              : zlib
    Codec ID                                 : S_VOBSUB
    Codec ID/Info                            : Picture based subtitle format used on DVDs
    Duration                                 : 1 h 31 min
    Bit rate                                 : 7 149 b/s
    Count of elements                        : 1437
    Stream size                              : 4.66 MiB (0%)
    Title                                    : Thai 1080p BIG
    Language                                 : Thai
    Default                                  : No
    Forced                                   : No
    
    Text #6
    ID                                       : 9
    Format                                   : VobSub
    Muxing mode                              : zlib
    Codec ID                                 : S_VOBSUB
    Codec ID/Info                            : Picture based subtitle format used on DVDs
    Duration                                 : 1 h 31 min
    Bit rate                                 : 7 162 b/s
    Count of elements                        : 1437
    Stream size                              : 4.67 MiB (0%)
    Title                                    : Thai 1080p Out [BIG]
    Language                                 : Thai
    Default                                  : No
    Forced                                   : No
    
    Text #7
    ID                                       : 10
    Format                                   : PGS
    Muxing mode                              : zlib
    Codec ID                                 : S_HDMV/PGS
    Codec ID/Info                            : Picture based subtitle format used on BDs/HD-DVDs
    Duration                                 : 1 h 31 min
    Bit rate                                 : 18.3 kb/s
    Count of elements                        : 2884
    Stream size                              : 11.9 MiB (0%)
    Title                                    : Thai PGS
    Language                                 : Thai
    Default                                  : No
    Forced                                   : No
    
    Text #8
    ID                                       : 11
    Format                                   : PGS
    Muxing mode                              : zlib
    Codec ID                                 : S_HDMV/PGS
    Codec ID/Info                            : Picture based subtitle format used on BDs/HD-DVDs
    Duration                                 : 1 h 31 min
    Bit rate                                 : 18.7 kb/s
    Count of elements                        : 2884
    Stream size                              : 12.2 MiB (0%)
    Title                                    : Thai PGS Yellow
    Language                                 : Thai
    Default                                  : No
    Forced                                   : No
    
    Text #9
    ID                                       : 12
    Format                                   : PGS
    Muxing mode                              : zlib
    Codec ID                                 : S_HDMV/PGS
    Codec ID/Info                            : Picture based subtitle format used on BDs/HD-DVDs
    Duration                                 : 1 h 31 min
    Bit rate                                 : 18.4 kb/s
    Count of elements                        : 2884
    Stream size                              : 12.0 MiB (0%)
    Title                                    : Thai PGS Out
    Language                                 : Thai
    Default                                  : No
    Forced                                   : No
    
    Text #10
    ID                                       : 13
    Format                                   : PGS
    Muxing mode                              : zlib
    Codec ID                                 : S_HDMV/PGS
    Codec ID/Info                            : Picture based subtitle format used on BDs/HD-DVDs
    Duration                                 : 1 h 34 min
    Bit rate                                 : 23.5 kb/s
    Count of elements                        : 3278
    Stream size                              : 15.9 MiB (0%)
    Title                                    : English
    Language                                 : English
    Default                                  : No
    Forced                                   : No
    
    Menu
    00:00:00.000                             : en:Chapter 1
    00:08:14.494                             : en:Chapter 2
    00:17:54.073                             : en:Chapter 3
    00:25:26.525                             : en:Chapter 4
    00:32:30.949                             : en:Chapter 5
    00:42:37.555                             : en:Chapter 6
    00:50:35.032                             : en:Chapter 7
    00:58:02.479                             : en:Chapter 8
    01:04:19.856                             : en:Chapter 9
    01:13:20.396                             : en:Chapter 10
    01:21:12.868                             : en:Chapter 11
    01:31:09.464                             : en:Chapter 12











    Download: cornfile
    http://cornfile.com/vc2bcr26srot
    Download: mekafile
    http://www.mekafile.com/dl.php?f=H03b2ec6PzGm

  2. #2
    Senior Member
    สมัครเมื่อ
    Jun 2014
    โพสต์
    4,088
    Thanks
    0
    Thanked 0 Times in 0 Posts
    ขอบคุณครับ

+ ตอบกลับกระทู้

ข้อมูลกระทู้

Users Browsing this Thread

ในขณะนี้มี 1 ท่านดูกระทู้อยู่. (0 สมาชิกและ 1 ผู้เยี่ยมชม)

     

กฎการโพสต์ข้อความ

  • ท่าน ไม่สามารถ ตั้งกระทู้ใหม่ได้
  • ท่าน ไม่สามารถ ตอบกระทู้ได้
  • ท่าน ไม่สามารถ แนบไฟล์ได้
  • ท่าน ไม่สามารถ แก้ไขข้อความโพสต์ได้
  • BB code สถานะ เปิด
  • Smilies สถานะ เปิด
  • [IMG] สถานะ เปิด
  • HTML สถานะ ปิด