+ ตอบกลับกระทู้
สรุปผลการค้นหา 1 ถึง 4 จากทั้งหมด 4
  1. #1
    Administrators รูปส่วนตัว Duckload.us
    สมัครเมื่อ
    Dec 2010
    โพสต์
    112,526
    Thanks
    7
    Thanked 118,306 Times in 53,583 Posts

    Angry [ภาพชัดใหม่] สุภาพบุรุษมาหากัญ 2019 The.Gentlemen.2019.1080p.WEBRip.DD5.1.x264-THR.AC3.2.0 [เสียงไทยโรง]



    The Gentlemen เตรียมพบกับผลงานใหม่จาก ‘กาย ริชชี่’ ผู้กำกับ Sherlock Holmes และ Snatch ในภาพยนตร์แอคชั่นหักเหลี่ยมสุดมันส์แห่งปี ที่ยกขบวนนักแสดงแถวหน้าของฮอลลีวูดกันมาอย่างคับคั่ ง ไม่ว่าจะเป็น แมทธิว แม็กคอนาเฮย์, ชาร์ลี ฮันแนม, โคลิน ฟาร์เรล, เฮนรี่ โกลดิง และ ฮิวจ์ แกรนท์ เมื่อเจ้าพ่อกัญชาผู้ทรงอิทธิพลมากที่สุดแห่งเกาะอัง กฤษอย่าง มิกกี้ เพียร์สัน (แมทธิว แม็กคอนาเฮย์) ที่ตัดสินใจวางมือจากวงการ เขาจึงตกกลายเป็นชนวนสำคัญที่นำไปสู่ความขัดแย้งหักเ หลี่ยมเฉือนคมระหว่างแก๊งค์มาเฟีย องค์กรยาเสพติด สำนักข่าว และเหล่าชนชั้นสูงของอังกฤษ ที่ล้วนแต่มีเป้าหมายในการครอบครองอาณาจักรกัญชาของเ ขาไว้ในมือตัวเอง!

    Format : Matroska
    Format version : Version 4
    File size : 4.66 GiB
    Duration : 1 h 53 min
    Overall bit rate : 5 885 kb/s
    Encoded date : UTC 2020-03-24 10:23:15
    Writing application : mkvmerge v43.0.0 ('The Quartermaster') 64-bit
    Writing library : libebml v1.3.10 + libmatroska v1.5.2
    Cover : Yes
    Attachments : small_cover.jpg / small_cover_land.jpg / cover.jpg / cover_land.jpg

    Video
    ID : 1
    Format : AVC
    Format/Info : Advanced Video Codec
    Format profile : [email protected]
    Format settings : CABAC / 2 Ref Frames
    Format settings, CABAC : Yes
    Format settings, Reference frames : 2 frames
    Codec ID : V_MPEG4/ISO/AVC
    Duration : 1 h 53 min
    Bit rate : 5 307 kb/s
    Width : 1 920 pixels
    Height : 1 080 pixels
    Display aspect ratio : 16:9
    Frame rate mode : Constant
    Frame rate : 23.976 (24000/1001) FPS
    Color space : YUV
    Chroma subsampling : 4:2:0
    Bit depth : 8 bits
    Scan type : Progressive
    Bits/(Pixel*Frame) : 0.107
    Stream size : 4.20 GiB (90%)
    Writing library : x264 core 155 r2901 7d0ff22
    Default : Yes
    Forced : No
    Color range : Limited
    Color primaries : BT.709
    Transfer characteristics : BT.709
    Matrix coefficients : BT.709

    Audio #1
    ID : 2
    Format : AC-3
    Format/Info : Audio Coding 3
    Commercial name : Dolby Digital
    Codec ID : A_AC3
    Duration : 1 h 53 min
    Bit rate mode : Constant
    Bit rate : 384 kb/s
    Channel(s) : 6 channels
    Channel layout : L R C LFE Ls Rs
    Sampling rate : 48.0 kHz
    Frame rate : 31.250 FPS (1536 SPF)
    Bit depth : 16 bits
    Compression mode : Lossy
    Stream size : 311 MiB (7%)
    Language : English
    Service kind : Complete Main
    Default : Yes
    Forced : No

    Audio #2
    ID : 3
    Format : AC-3
    Format/Info : Audio Coding 3
    Commercial name : Dolby Digital
    Codec ID : A_AC3
    Duration : 1 h 53 min
    Bit rate mode : Constant
    Bit rate : 192 kb/s
    Channel(s) : 2 channels
    Channel layout : L R
    Sampling rate : 48.0 kHz
    Frame rate : 31.250 FPS (1536 SPF)
    Bit depth : 16 bits
    Compression mode : Lossy
    Stream size : 156 MiB (3%)
    Title : THR.AC3.2.0
    Language : Thai
    Service kind : Complete Main
    Default : No
    Forced : No





    Download: cornfile
    4.7 GB http://cornfile.com/3o3qgx0mes41
    4.8 GB http://cornfile.com/1ljtssebnhnm
    Download: mekafile
    meka อัพไม่ได้ครับ หนังค่าย M

  2. The Following 2 Users Say Thank You to Duckload.us For This Useful Post:

    Tatum03 (03-27-2020), Wesker_TOT (03-26-2020)

  3. #2
    Senior Member
    สมัครเมื่อ
    Jun 2014
    โพสต์
    2,993
    Thanks
    0
    Thanked 0 Times in 0 Posts
    ขอบคุณครับ

  4. #3
    Senior Member
    สมัครเมื่อ
    Dec 2013
    โพสต์
    2,035
    Thanks
    3,953
    Thanked 0 Times in 0 Posts
    ขอบคุณนะครับ...

  5. #4
    Senior Member
    สมัครเมื่อ
    Oct 2013
    ที่อยู่
    Thailand
    โพสต์
    1,281
    Thanks
    1,153
    Thanked 0 Times in 0 Posts
    ขอบคุณมาก

+ ตอบกลับกระทู้

ข้อมูลกระทู้

Users Browsing this Thread

ในขณะนี้มี 1 ท่านดูกระทู้อยู่. (0 สมาชิกและ 1 ผู้เยี่ยมชม)

     

กฎการโพสต์ข้อความ

  • ท่าน ไม่สามารถ ตั้งกระทู้ใหม่ได้
  • ท่าน ไม่สามารถ ตอบกระทู้ได้
  • ท่าน ไม่สามารถ แนบไฟล์ได้
  • ท่าน ไม่สามารถ แก้ไขข้อความโพสต์ได้
  • BB code สถานะ เปิด
  • Smilies สถานะ เปิด
  • [IMG] สถานะ เปิด
  • HTML สถานะ ปิด