+ ตอบกลับกระทู้
สรุปผลการค้นหา 1 ถึง 4 จากทั้งหมด 4
  1. #1
    Administrators รูปส่วนตัว Duckload.us
    สมัครเมื่อ
    Dec 2010
    โพสต์
    112,526
    Thanks
    7
    Thanked 118,303 Times in 53,580 Posts

    Question [ฝรั่ง]-ใหม่ [* 1080p WEB-DL ไฟล์เล็กคุณภาพสูง! *] Birds of Prey (2020) : ทีมนกผู้ล่า กับฮาร์ลีย์ ควินน์ ผู้เริดเชิด [พากย์ไทยโรง 5.1 + เสียงอังกฤษ DD5.1] [บรรรยายอังกฤษ] [เสียงไทย 2.0 Modifiy 5.1!]



    ••• 1080p.WEB-DL.THR5.1.H264 •••
    พากย์ไทยโรง 5.1 + เสียงอังกฤษ DD5.1 + บรรยายอังกฤษ

    Birds of prey คุณเคยได้ยินเรื่องราวระหว่างตำรวจ นักร้อง คนโรคจิต และเจ้าหญิงแห่งมาเฟียมั้ย? เรื่องราวอีกด้านที่บอกเล่าผ่าน ฮาร์ลีย์ ด้วยตัวเอง ซึ่งมีเพียงเธอเท่านั้นที่จะเล่าได้ เมื่อวายร้ายที่ชอบหลงตัวเองแห่งก็อตแธมอย่าง โรมัน ไซโอนิส และ แซซ มือขวาจอมขยันของเขาพุ่งเป้าไปที่สาวน้อยที่ชื่อ แคส ทั้งเมืองต้องเกิดเหตุการณ์วุ่นวายในการตามหาเธอ บนเส้นทางที่ขัดแย้งกันระหว่าง ฮาร์ลีย์, ฮันเทรส, แบล็ค คานารี่ และ เรเน มอนโทย่า เหมือนจะไม่มีทางเลือกอื่นใด นอกจากจะร่วมมือกันโค่น โรมัน ให้ได้!

    Format : Matroska
    Format version : Version 4
    File size : 4.30 GiB
    Duration : 1 h 48 min
    Overall bit rate : 5 656 kb/s
    Movie name : [email protected]mbit

    Video
    ID : 1
    Format : AVC
    Format/Info : Advanced Video Codec
    Format profile : [email protected]
    Format settings : CABAC / 5 Ref Frames
    Format settings, CABAC : Yes
    Format settings, Reference : 5 frames
    Codec ID : V_MPEG4/ISO/AVC
    Duration : 1 h 48 min
    Bit rate : 4 553 kb/s
    Width : 1 920 pixels
    Height : 802 pixels
    Display aspect ratio : 2.40:1
    Frame rate mode : Constant
    Frame rate : 23.976 (24000/1001) FPS
    Color space : YUV
    Chroma subsampling : 4:2:0
    Bit depth : 8 bits
    Scan type : Progressive
    Bits/(Pixel*Frame) : 0.123
    Stream size : 3.46 GiB (80%)
    Title : [email protected]mbit
    Language : English
    Default : Yes
    Forced : No
    Color range : Limited
    Color primaries : BT.709
    Transfer characteristics : BT.709
    Matrix coefficients : BT.709

    Audio #1
    ID : 2
    Format : AC-3
    Format/Info : Audio Coding 3
    Commercial name : Dolby Digital
    Codec ID : A_AC3
    Duration : 1 h 48 min
    Bit rate mode : Constant
    Bit rate : 640 kb/s
    Channel(s) : 6 channels
    Channel layout : L R C LFE Ls Rs
    Sampling rate : 48.0 kHz
    Frame rate : 31.250 FPS (1536 SPF)
    Compression mode : Lossy
    Stream size : 498 MiB (11%)
    Title : ThaiRong 5.1 @ 640 kb/s By [email protected]
    Language : Thai
    Service kind : Complete Main
    Default : Yes
    Forced : No

    Audio #2
    ID : 3
    Format : AC-3
    Format/Info : Audio Coding 3
    Commercial name : Dolby Digital
    Codec ID : A_AC3
    Duration : 1 h 48 min
    Bit rate mode : Constant
    Bit rate : 384 kb/s
    Channel(s) : 6 channels
    Channel layout : L R C LFE Ls Rs
    Sampling rate : 48.0 kHz
    Frame rate : 31.250 FPS (1536 SPF)
    Compression mode : Lossy
    Stream size : 299 MiB (7%)
    Title : English DD5.1 @ 384 kb/s
    Language : English
    Service kind : Complete Main
    Default : No
    Forced : No

    Text #1
    ID : 4
    Format : UTF-8
    Codec ID : S_TEXT/UTF8
    Codec ID/Info : UTF-8 Plain Text
    Duration : 1 h 48 min
    Bit rate : 56 b/s
    Count of elements : 1612
    Stream size : 45.2 KiB (0%)
    Language : English
    Default : Yes
    Forced : No

    Text #2
    ID : 5
    Format : PGS
    Codec ID : S_HDMV/PGS
    Codec ID/Info : Picture based subtitle format used on BDs/HD-DVDs
    Duration : 1 h 48 min
    Bit rate : 38.6 kb/s
    Count of elements : 3224
    Stream size : 29.9 MiB (1%)
    Title : PGS
    Language : English
    Default : No
    Forced : No

    Text #3
    ID : 6
    Format : PGS
    Codec ID : S_HDMV/PGS
    Codec ID/Info : Picture based subtitle format used on BDs/HD-DVDs
    Duration : 1 h 48 min
    Bit rate : 38.6 kb/s
    Count of elements : 3224
    Stream size : 29.9 MiB (1%)
    Title : PGS Out
    Language : English
    Default : No
    Forced : No

    Menu
    00:00:00.000 : en:1
    00:08:07.779 : en:2
    00:17:53.072 : en:3
    00:27:11.171 : en:4
    00:35:40.138 : en:5
    00:44:47.685 : en:6
    00:53:42.719 : en:7
    01:01:14.878 : en:8
    01:10:55.290 : en:9
    01:19:05.822 : en:10
    01:24:27.475 : en:11
    01:34:27.324 : en:12
    01:41:26.326 : en:13




    Download: cornfile
    http://cornfile.com/r1kvo3a8cr9g fix
    Download: mekafile
    http://www.mekafile.com/dl.php?f=Jv3f12c6V1HG

  2. The Following User Says Thank You to Duckload.us For This Useful Post:

    amorn wichian (03-27-2020)

  3. #2
    Junior Member
    สมัครเมื่อ
    Sep 2014
    โพสต์
    5
    Thanks
    1
    Thanked 0 Times in 0 Posts
    ขอบคุณครับ ทำไมไฟล์ใหญ่จัง 18gb+

  4. #3
    Administrators รูปส่วนตัว Duckload.us
    สมัครเมื่อ
    Dec 2010
    โพสต์
    112,526
    Thanks
    7
    Thanked 118,303 Times in 53,580 Posts
    อ้างอิง โพสต์ต้นฉบับโดยคุณ qooland ดูโพสต์
    ขอบคุณครับ ทำไมไฟล์ใหญ่จัง 18gb+
    แก้ไขแล้วครับท่าน
    ขอบคุณที่แจ้งมานะครับ

  5. #4
    Senior Member
    สมัครเมื่อ
    Jul 2013
    โพสต์
    319
    Thanks
    0
    Thanked 0 Times in 0 Posts
    ขอบคุณครับผม

+ ตอบกลับกระทู้

ข้อมูลกระทู้

Users Browsing this Thread

ในขณะนี้มี 1 ท่านดูกระทู้อยู่. (0 สมาชิกและ 1 ผู้เยี่ยมชม)

     

กฎการโพสต์ข้อความ

  • ท่าน ไม่สามารถ ตั้งกระทู้ใหม่ได้
  • ท่าน ไม่สามารถ ตอบกระทู้ได้
  • ท่าน ไม่สามารถ แนบไฟล์ได้
  • ท่าน ไม่สามารถ แก้ไขข้อความโพสต์ได้
  • BB code สถานะ เปิด
  • Smilies สถานะ เปิด
  • [IMG] สถานะ เปิด
  • HTML สถานะ ปิด