+ ตอบกลับกระทู้
สรุปผลการค้นหา 1 ถึง 6 จากทั้งหมด 6
  1. #1
    Administrators รูปส่วนตัว Duckload.us
    สมัครเมื่อ
    Dec 2010
    โพสต์
    114,627
    Thanks
    7
    Thanked 120,977 Times in 54,383 Posts

    Question (ฝรั่ง.ไทยมาสเตอร์)-Bloodshot (2020) จักรกลเลือดดุ-[1080p.WEB-DL.DD5.1][Sound:Eng AC3 5.1/Thai AC3 2.0:Master][ SUB:Eng/ThaI.PGS]



    เรื่องราวของ Ray Garrison (รับบทโดย Vin Diesel) ชายผู้กลายเป็นเครื่องจักรสังหารทำภารกิจเสี่ยงตายตา มคำสั่งขององค์กร ความทรงจำของเขาได้หายไป สิ่งเดียวที่เขารู้คือเขาต้องทำภารกิจช่วยเหลือคนรัก ของเขา และเขาไม่ใช่เพียงแค่คนธรรมดาเพราะภายในเลือดของเขาไ ด้มีหุ่นขนาดเล็กที่เรียกว่า นาไนต์ ที่จะช่วยให้เขามีพลังเหนือมนุษย์ธรรมดาและมีพลังในก ารเยียวยารักษาสูง แทบพูดได้เลยว่าเขานั้นเหมือนจะเป็นเครื่องจักรสังหา รอมตะ เป็นแฟรงค์เกนสไตน์ในยุคปัจจุบัน แต่แล้วเมื่อวันหนึ่งความผิดปกติบางอย่างมันก็ทำให้เ ขารู้ว่า เขากำลังถูกองค์กรนี้หลอกใช้ และคอยลบความทรงจำ หลอกลวงเขาให้ทำภารกิจเสี่ยงตายเพื่อผลประโยชน์ขององ ค์กรอยู่เสมอ

    Format : Matroska
    Format version : Version 4
    File size : 3.86 GiB
    Duration : 1 h 49 min
    Overall bit rate : 5 051 kb/s
    Movie name : Bloodshot.2020.1080p.WEB-DL.DD5.1._©GOLD CUP™

    Video
    ID : 1
    Format : AVC
    Format/Info : Advanced Video Codec
    Format profile : [email protected]
    Format settings : CABAC / 1 Ref Frames
    Format settings, CABAC : Yes
    Format settings, Reference frames : 1 frame
    Format settings, GOP : M=1, N=25
    Codec ID : V_MPEG4/ISO/AVC
    Duration : 1 h 49 min
    Bit rate mode : Constant
    Bit rate : 4 000 kb/s
    Width : 1 920 pixels
    Height : 798 pixels
    Display aspect ratio : 2.40:1
    Frame rate mode : Constant
    Frame rate : 29.970 (30000/1001) FPS
    Color space : YUV
    Chroma subsampling : 4:2:0
    Bit depth : 8 bits
    Scan type : Progressive
    Bits/(Pixel*Frame) : 0.087
    Stream size : 3.06 GiB (79%)
    Title : Bloodshot.2020.1080p.WEB-DL.DD5.1._©GOLD CUP™
    Language : English
    Default : Yes
    Forced : No

    Audio #1
    ID : 2
    Format : AC-3
    Format/Info : Audio Coding 3
    Commercial name : Dolby Digital
    Codec ID : A_AC3
    Duration : 1 h 49 min
    Bit rate mode : Constant
    Bit rate : 640 kb/s
    Channel(s) : 2 channels
    Channel layout : L R
    Sampling rate : 44.1 kHz
    Frame rate : 28.711 FPS (1536 SPF)
    Compression mode : Lossy
    Stream size : 500 MiB (13%)
    Title : 2.0 AC3 TH 640K 500M_©GOLD CUP™
    Language : Thai
    Service kind : Complete Main
    Default : Yes
    Forced : No

    Audio #2
    ID : 3
    Format : AC-3
    Format/Info : Audio Coding 3
    Commercial name : Dolby Digital
    Codec ID : A_AC3
    Duration : 1 h 49 min
    Bit rate mode : Constant
    Bit rate : 384 kb/s
    Channel(s) : 6 channels
    Channel layout : L R C LFE Ls Rs
    Sampling rate : 48.0 kHz
    Frame rate : 31.250 FPS (1536 SPF)
    Compression mode : Lossy
    Stream size : 300 MiB (8%)
    Title : 5.1 AC3 384K 300M-DL.DD5.1.H264_©GOLD CUP™
    Language : English
    Service kind : Complete Main
    Default : No
    Forced : No

    Text #1
    ID : 4
    Format : PGS
    Muxing mode : zlib
    Codec ID : S_HDMV/PGS
    Codec ID/Info : Picture based subtitle format used on BDs/HD-DVDs
    Duration : 1 h 48 min
    Bit rate : 13.5 kb/s
    Count of elements : 2228
    Stream size : 10.5 MiB (0%)
    Title : 2.0 AC3 TH 640K 500M_©GOLD CUP™
    Language : Thai
    Default : Yes
    Forced : No

    Text #2
    ID : 5
    Format : PGS
    Muxing mode : zlib
    Codec ID : S_HDMV/PGS
    Codec ID/Info : Picture based subtitle format used on BDs/HD-DVDs
    Duration : 1 h 42 min
    Bit rate : 17.2 kb/s
    Count of elements : 2284
    Stream size : 12.5 MiB (0%)
    Title : EN.PGS.YELLOW.75-50-10_©GOLD CUP™
    Language : English
    Default : No
    Forced : No

    Text #3
    ID : 6
    Format : PGS
    Muxing mode : zlib
    Codec ID : S_HDMV/PGS
    Codec ID/Info : Picture based subtitle format used on BDs/HD-DVDs
    Duration : 1 h 47 min
    Bit rate : 21.1 kb/s
    Count of elements : 2990
    Stream size : 16.3 MiB (0%)
    Title : EN.SDH.PGS.ORENG.75-50-10_©GOLD CUP™
    Language : English
    Default : No
    Forced : No

    Menu
    00:00:00.000 : en:1
    00:06:57.792 : en:2
    00:13:03.073 : en:3
    00:20:37.860 : en:4
    00:26:31.380 : en:5
    00:33:13.782 : en:6
    00:40:09.071 : en:7
    00:46:40.378 : en:8
    00:54:16.249 : en:9
    01:01:43.946 : en:10
    01:08:09.413 : en:11
    01:13:28.105 : en:12
    01:22:14.130 : en:13
    01:28:15.282 : en:14
    01:36:41.578 : en:15
    01:42:29.675 : en:16






    Download: cornfile
    http://cornfile.com/noc4qw215kc6
    Download: mekafile
    http://www.mekafile.com/dl.php?f=a1e902c755sq

  2. The Following 4 Users Say Thank You to Duckload.us For This Useful Post:

    amorn wichian (03-29-2020), bigbang06 (03-29-2020), Jodz14 (03-29-2020), spiderpud2 (03-30-2020)

  3. #2
    Junior Member
    สมัครเมื่อ
    Sep 2012
    โพสต์
    23
    Thanks
    0
    Thanked 0 Times in 0 Posts
    confile โหลดไม่ได้ครับ

  4. #3

  5. #4
    Junior Member
    สมัครเมื่อ
    Sep 2012
    โพสต์
    23
    Thanks
    0
    Thanked 0 Times in 0 Posts
    ขอบคุณครับ

  6. #5
    Senior Member
    สมัครเมื่อ
    Jul 2013
    โพสต์
    593
    Thanks
    0
    Thanked 0 Times in 0 Posts
    ขอบคุณครับผม ไวทันใจมากๆ

  7. #6
    Senior Member
    สมัครเมื่อ
    Jun 2014
    โพสต์
    3,903
    Thanks
    0
    Thanked 0 Times in 0 Posts
    ขอบคุณครับ

+ ตอบกลับกระทู้

ข้อมูลกระทู้

Users Browsing this Thread

ในขณะนี้มี 1 ท่านดูกระทู้อยู่. (0 สมาชิกและ 1 ผู้เยี่ยมชม)

     

กฎการโพสต์ข้อความ

  • ท่าน ไม่สามารถ ตั้งกระทู้ใหม่ได้
  • ท่าน ไม่สามารถ ตอบกระทู้ได้
  • ท่าน ไม่สามารถ แนบไฟล์ได้
  • ท่าน ไม่สามารถ แก้ไขข้อความโพสต์ได้
  • BB code สถานะ เปิด
  • Smilies สถานะ เปิด
  • [IMG] สถานะ เปิด
  • HTML สถานะ ปิด