+ ตอบกลับกระทู้
สรุปผลการค้นหา 1 ถึง 3 จากทั้งหมด 3
  1. #1
    Administrators รูปส่วนตัว Duckload.us
    สมัครเมื่อ
    Dec 2010
    โพสต์
    114,628
    Thanks
    7
    Thanked 120,980 Times in 54,385 Posts

    Question [ฝรั่ง]-((ใหม่-พากย์ไทยมาสเตอร์)) Honey Boy (2019) เด็กชายผิวสีน้ำผึ้ง พากย์ไทย DD-อังกฤษ DDP 5.1 + ซับอังกฤษ-ไทย PGS คมชัดสุดๆ-AMZN-WEB-DL.AC-3.1080p. [Modified]-[พากย์ไทย บรรยายไทย]




    เด็กชายผิวสีน้ำผึ้ง (ลูคัส เฮดจ์ส) เป็นนักแสดงหนุ่มดาวรุ่งที่กำลังไปได้สวยในวงการ แต่เขากลับทำตัวเหมือนกระสวยอวกาศที่ไร้การควบคุม และคอยแต่จะสร้างปัญหาให้ตัวเองตลอดเวลา จิตแพทย์วินิจฉัยว่าพฤติกรรมของโอทิสเป็นผลพวงมาจากช ีวิตวัยเด็กที่บกพร่อง
    และส่วนหนึ่งของความบกพร่องที่ว่านั้นมาจากพ่อที่คอย บังคับขู่เข็นเขาตลอดมา โอทิส พยายามปฏิเสธว่าคำกล่าวของหมอไม่ใช่ความจริง พร้อมกับที่ค่อย ๆ ย้อนกลับไปทบทวนชีวิตที่ผ่านมาของตนเอง (โนอาห์ จูป รับบทวัยเด็ก) และทำความเข้าใจผู้เป็นพ่อใหม่อีกครั้ง

    ชื่อภาพยนตร์ : Honey Boy (2019) เด็กชายผิวสีน้ำผึ้ง
    แนว/ประเภท : ดราม่า
    ผู้กำกับภาพยนตร์ : Alma Har’el
    บทภาพยนตร์ : Shia LaBeouf
    นักแสดง : Shia LaBeouf, Lucas Hedges, Noah Jupe

    เรื่องย่อ :

    ในปี 2548 โอทิสลอร์ต (ลูคัสเฮดจ์) เป็นดาราภาพยนตร์ที่มีปัญหาแอลกอฮอล์รุนแรง เขาชนรถของเขาและเข้าปะทะกับตำรวจอย่างรุนแรง เขาถูกบังคับให้ต้องไปที่สถานบำบัดที่ซึ่งดร. โมเรโน (ลอร่าซานเกียโคโม) ที่ปรึกษาของเขาบอกเขาว่าถ้าเขาออกจากสถานที่ก่อนที่ พวกเขาจะบอกว่าเขาพร้อมศาลจะส่งเขาเข้าคุกเพราะความร ุนแรง เธอบอกว่าขึ้นอยู่กับสิ่งที่เธอพบว่าโอทิสมีพล็อตซึ่ งเขาปฏิเสธซ้ำ ๆ แต่เธอกระตุ้นให้เขามองอดีตของเขาผ่านการบำบัดด้วยกา รสัมผัส

    Code:
    General
    Unique ID                      : 327475355604979335077223382784298367047
    Complete name                  : Honey Boy (2019) เด็กชายผิวสีน้ำผึ้ง [AMZN WEB-DL].mkv
    Format                         : Matroska
    Format version                 : Version 4 / Version 2
    File size                      : 6.42 GiB
    Duration                       : 1 h 34 min
    Overall bit rate               : 9 760 kb/s
    Movie name                     : Honey.Boy.2019.REPACK.1080p.AMZN.WEB-DL.AVC.8bit.DDP5.1.x264-P4TiP4T
    Encoded date                   : UTC 2020-03-28 15:43:04
    Writing application            : mkvmerge v41.0.0 ('Smarra') 64-bit
    Writing library                : libebml v1.3.9 + libmatroska v1.5.2
    Cover                          : Yes
    Attachments                    : cover
    
    Video
    ID                             : 1
    Format                         : AVC
    Format/Info                    : Advanced Video Codec
    Format profile                 : [email protected]
    Format settings, CABAC         : Yes
    Format settings, RefFrames     : 4 frames
    Codec ID                       : V_MPEG4/ISO/AVC
    Duration                       : 1 h 34 min
    Bit rate mode                  : Constant
    Bit rate                       : 8 606 kb/s
    Nominal bit rate               : 10 000 kb/s
    Width                          : 1 920 pixels
    Height                         : 800 pixels
    Display aspect ratio           : 2.40:1
    Frame rate mode                : Constant
    Frame rate                     : 23.976 (24000/1001) FPS
    Color space                    : YUV
    Chroma subsampling             : 4:2:0
    Bit depth                      : 8 bits
    Scan type                      : Progressive
    Bits/(Pixel*Frame)             : 0.234
    Stream size                    : 5.66 GiB (88%)
    Default                        : Yes
    Forced                         : No
    Color range                    : Limited
    Color primaries                : BT.709
      Transfer characteristics       : BT.709
    Matrix coefficients            : BT.709
    
    Audio #1
    ID                             : 2
    Format                         : E-AC-3
    Format/Info                    : Enhanced Audio Coding 3
    Format settings, Endianness    : Big
    Codec ID                       : A_EAC3
    Duration                       : 1 h 34 min
    Bit rate mode                  : Constant
    Bit rate                       : 640 kb/s
    Channel(s)                     : 6 channels
    Channel positions              : Front: L C R, Side: L R, LFE
    Sampling rate                  : 48.0 kHz
    Frame rate                     : 187.500 FPS (256 SPF)
    Compression mode               : Lossy
    Stream size                    : 431 MiB (7%)
    Language                       : English
    Service kind                   : Complete Main
    Default                        : No
    Forced                         : No
    
    Audio #2
    ID                             : 3
    Format                         : AC-3
    Format/Info                    : Audio Coding 3
    Format settings, Endianness    : Big
    Codec ID                       : A_AC3
    Duration                       : 1 h 34 min
    Bit rate mode                  : Constant
    Bit rate                       : 384 kb/s
    Channel(s)                     : 2 channels
    Channel positions              : Front: L R
    Sampling rate                  : 48.0 kHz
    Frame rate                     : 31.250 FPS (1536 SPF)
    Bit depth                      : 16 bits
    Compression mode               : Lossy
    Stream size                    : 259 MiB (4%)
    Language                       : Thai
    Service kind                   : Complete Main
    Default                        : Yes
    Forced                         : Yes
    
    Text #1
    ID                             : 4
    Format                         : UTF-8
    Codec ID                       : S_TEXT/UTF8
    Codec ID/Info                  : UTF-8 Plain Text
    Duration                       : 1 h 25 min
    Bit rate                       : 66 b/s
    Count of elements              : 1345
    Stream size                    : 41.9 KiB (0%)
    Language                       : English
    Default                        : No
    Forced                         : No
    
    Text #2
    ID                             : 5
    Format                         : PGS
    Muxing mode                    : zlib
    Codec ID                       : S_HDMV/PGS
    Codec ID/Info                  : Picture based subtitle format used on BDs/HD-DVDs
    Duration                       : 1 h 33 min
    Bit rate                       : 66.0 kb/s
    Count of elements              : 3468
    Stream size                    : 44.3 MiB (1%)
    Title                          : Gray
    Language                       : English
    Default                        : No
    Forced                         : No
    
    Text #3
    ID                             : 6
    Format                         : PGS
    Muxing mode                    : zlib
    Codec ID                       : S_HDMV/PGS
    Codec ID/Info                  : Picture based subtitle format used on BDs/HD-DVDs
    Duration                       : 1 h 33 min
    Bit rate                       : 66.0 kb/s
    Count of elements              : 3468
    Stream size                    : 44.3 MiB (1%)
    Title                          : White
    Language                       : English
    Default                        : No
    Forced                         : No
    
    Text #4
    ID                             : 7
    Format                         : PGS
    Muxing mode                    : zlib
    Codec ID                       : S_HDMV/PGS
    Codec ID/Info                  : Picture based subtitle format used on BDs/HD-DVDs
    Duration                       : 1 h 33 min
    Bit rate                       : 66.0 kb/s
    Count of elements              : 3468
    Stream size                    : 44.3 MiB (1%)
    Title                          : Yellow
    Language                       : English
    Default                        : No
    Forced                         : No
    
    Text #5
    ID                             : 8
    Format                         : UTF-8
    Codec ID                       : S_TEXT/UTF8
    Codec ID/Info                  : UTF-8 Plain Text
    Duration                       : 1 h 32 min
    Bit rate                       : 89 b/s
    Count of elements              : 933
    Stream size                    : 60.9 KiB (0%)
    Language                       : Thai
    Default                        : No
    Forced                         : No
    
    Text #6
    ID                             : 9
    Format                         : PGS
    Muxing mode                    : zlib
    Codec ID                       : S_HDMV/PGS
    Codec ID/Info                  : Picture based subtitle format used on BDs/HD-DVDs
    Duration                       : 1 h 32 min
    Bit rate                       : 28.6 kb/s
    Count of elements              : 1866
    Stream size                    : 19.0 MiB (0%)
    Title                          : Gray
    Language                       : Thai
    Default                        : Yes
    Forced                         : Yes
    
    Text #7
    ID                             : 10
    Format                         : PGS
    Muxing mode                    : zlib
    Codec ID                       : S_HDMV/PGS
    Codec ID/Info                  : Picture based subtitle format used on BDs/HD-DVDs
    Duration                       : 1 h 32 min
    Bit rate                       : 28.6 kb/s
    Count of elements              : 1866
    Stream size                    : 19.0 MiB (0%)
    Title                          : White
    Language                       : Thai
    Default                        : No
    Forced                         : No
    
    Text #8
    ID                             : 11
    Format                         : PGS
    Muxing mode                    : zlib
    Codec ID                       : S_HDMV/PGS
    Codec ID/Info                  : Picture based subtitle format used on BDs/HD-DVDs
    Duration                       : 1 h 32 min
    Bit rate                       : 28.6 kb/s
    Count of elements              : 1866
    Stream size                    : 19.0 MiB (0%)
    Title                          : Yellow
    Language                       : Thai
    Default                        : No
    Forced                         : No
    
    Menu
    00:00:00.000                   : en:Studio Logos
    00:00:44.000                   : en:A day in the life of a stunt man
    00:04:26.000                   : en:Entering rehab
    00:06:04.000                   : en:Title Sequence
    00:06:07.000                   : en:Growing up in LA
    00:10:22.000                   : en:Father son bonding
    00:20:23.000                   : en:Adjusting to rehab
    00:24:07.000                   : en:Otis takes care of himself
    00:30:29.000                   : en:James meets Tom
    00:36:25.000                   : en:Pool therapy
    00:39:48.000                   : en:Life in recovery
    00:50:30.000                   : en:Different therapy techniques
    00:58:43.000                   : en:A dynamic power struggle
    01:09:16.000                   : en:Confronting trauma
    01:15:20.000                   : en:A fresh start
    01:27:24.000                   : en:End Credits





    Download: cornfile
    http://cornfile.com/h1ajr0pykxxf
    Download: mekafile
    http://www.mekafile.com/dl.php?f=FVc78ec758rf

  2. The Following 2 Users Say Thank You to Duckload.us For This Useful Post:

    chock (03-30-2020), Jodz14 (03-29-2020)

  3. #2
    Senior Member
    สมัครเมื่อ
    Jul 2013
    โพสต์
    593
    Thanks
    0
    Thanked 0 Times in 0 Posts
    ขอบคุณครับ

  4. #3
    Senior Member
    สมัครเมื่อ
    Jun 2014
    โพสต์
    3,903
    Thanks
    0
    Thanked 0 Times in 0 Posts
    ขอบคุณครับ

+ ตอบกลับกระทู้

ข้อมูลกระทู้

Users Browsing this Thread

ในขณะนี้มี 1 ท่านดูกระทู้อยู่. (0 สมาชิกและ 1 ผู้เยี่ยมชม)

     

กฎการโพสต์ข้อความ

  • ท่าน ไม่สามารถ ตั้งกระทู้ใหม่ได้
  • ท่าน ไม่สามารถ ตอบกระทู้ได้
  • ท่าน ไม่สามารถ แนบไฟล์ได้
  • ท่าน ไม่สามารถ แก้ไขข้อความโพสต์ได้
  • BB code สถานะ เปิด
  • Smilies สถานะ เปิด
  • [IMG] สถานะ เปิด
  • HTML สถานะ ปิด