+ ตอบกลับกระทู้
สรุปผลการค้นหา 1 ถึง 4 จากทั้งหมด 4
  1. #1
    Administrators รูปส่วนตัว Duckload.us
    สมัครเมื่อ
    Dec 2010
    โพสต์
    114,447
    Thanks
    7
    Thanked 120,745 Times in 54,303 Posts

    Question [ฝรั่ง]-The Way Back (2020) เส้นทางเกียรติยศ - [Soundtrack บรรยายไทย+อังกฤษ] 1080p.AMZN.WEB-DL.DDP5.1.H.264





    แจ็ค คันนิงแฮมเป็นนักบาสเกตบอลที่เดินออกจากเกมโดยหมดอนา คตของเขา หลายปีต่อมาเมื่อเขายอมรับงานสอนที่โรงเรียนเก่าของเ ขาอย่างไม่เต็มใจนัก นี่คือหนึ่งนัดสำหรับโอกาสครั้งที่สองสำหรับเขา


    Duration : 1 h 48 min
    Overall bit rate : 9 949 kb/s
    Encoded date : UTC 2020-03-29 03:46:55
    Writing application : mkvmerge v44.0.0 ('Domino') 64-bit
    Writing library : libebml v1.3.10 + libmatroska v1.5.2
    Cover : Yes
    Attachments : cover

    Video
    ID : 1
    Format : AVC
    Format/Info : Advanced Video Codec
    Format profile : [email protected]
    Format settings : CABAC / 4 Ref Frames
    Format settings, CABAC : Yes
    Format settings, Reference : 4 frames
    Codec ID : V_MPEG4/ISO/AVC
    Duration : 1 h 48 min
    Bit rate mode : Constant
    Bit rate : 9 271 kb/s
    Nominal bit rate : 10 000 kb/s
    Width : 1 920 pixels
    Height : 800 pixels
    Display aspect ratio : 2.40:1
    Frame rate mode : Constant
    Frame rate : 23.976 (24000/1001) FPS
    Color space : YUV
    Chroma subsampling : 4:2:0
    Bit depth : 8 bits
    Scan type : Progressive
    Bits/(Pixel*Frame) : 0.252
    Stream size : 7.02 GiB (93%)
    Default : Yes
    Forced : No
    Color range : Limited
    Color primaries : BT.709
    Transfer characteristics : BT.709
    Matrix coefficients : BT.709

    Audio
    ID : 2
    Format : E-AC-3
    Format/Info : Enhanced AC-3
    Commercial name : Dolby Digital Plus
    Codec ID : A_EAC3
    Duration : 1 h 48 min
    Bit rate mode : Constant
    Bit rate : 640 kb/s
    Channel(s) : 6 channels
    Channel layout : L R C LFE Ls Rs
    Sampling rate : 48.0 kHz
    Frame rate : 31.250 FPS (1536 SPF)
    Compression mode : Lossy
    Stream size : 496 MiB (6%)
    Language : English
    Service kind : Complete Main
    Default : Yes
    Forced : No

    Text #1
    ID : 3
    Format : PGS
    Muxing mode : zlib
    Codec ID : S_HDMV/PGS
    Codec ID/Info : Picture based subtitle format used on BDs/HD-DVDs
    Duration : 1 h 40 min
    Bit rate : 42.5 kb/s
    Count of elements : 3710
    Stream size : 30.5 MiB (0%)
    Language : English
    Default : No
    Forced : No

    Text #2
    ID : 4
    Format : PGS
    Muxing mode : zlib
    Codec ID : S_HDMV/PGS
    Codec ID/Info : Picture based subtitle format used on BDs/HD-DVDs
    Duration : 1 h 45 min
    Bit rate : 30.5 kb/s
    Count of elements : 3112
    Stream size : 22.9 MiB (0%)
    Language : Thai
    Default : Yes
    Forced : No






    3.49 GB
    http://cornfile.com/vrbkjbp5uaxv
    http://www.mekafile.com/dl.php?f=oc01b7c76qW8

    7.53 GB
    http://cornfile.com/23lgpt8gun28
    http://www.mekafile.com/dl.php?f=K95a53c76qQP

  2. The Following 2 Users Say Thank You to Duckload.us For This Useful Post:

    noi54 (04-01-2020), Tatum03 (03-30-2020)

  3. #2
    Senior Member
    สมัครเมื่อ
    Oct 2013
    ที่อยู่
    Thailand
    โพสต์
    1,334
    Thanks
    1,205
    Thanked 0 Times in 0 Posts
    ขอบคุณมาก

  4. #3
    Senior Member
    สมัครเมื่อ
    Jun 2014
    โพสต์
    3,799
    Thanks
    0
    Thanked 0 Times in 0 Posts
    ขอบคุณครับ

  5. #4
    Senior Member
    สมัครเมื่อ
    Jul 2013
    โพสต์
    575
    Thanks
    0
    Thanked 0 Times in 0 Posts
    ขอบคุณครับผม

+ ตอบกลับกระทู้

ข้อมูลกระทู้

Users Browsing this Thread

ในขณะนี้มี 1 ท่านดูกระทู้อยู่. (0 สมาชิกและ 1 ผู้เยี่ยมชม)

     

กฎการโพสต์ข้อความ

  • ท่าน ไม่สามารถ ตั้งกระทู้ใหม่ได้
  • ท่าน ไม่สามารถ ตอบกระทู้ได้
  • ท่าน ไม่สามารถ แนบไฟล์ได้
  • ท่าน ไม่สามารถ แก้ไขข้อความโพสต์ได้
  • BB code สถานะ เปิด
  • Smilies สถานะ เปิด
  • [IMG] สถานะ เปิด
  • HTML สถานะ ปิด