+ ตอบกลับกระทู้
สรุปผลการค้นหา 1 ถึง 5 จากทั้งหมด 5
  1. #1
    Administrators รูปส่วนตัว Duckload.us
    สมัครเมื่อ
    Dec 2010
    โพสต์
    114,447
    Thanks
    7
    Thanked 120,742 Times in 54,301 Posts

    Question (ฝรั่ง.ไทยมาสเตอร์)-Motherless Brooklyn (2019) สืบกระตุก โค่นอิทธิพลมืด)-[1080p.WEB-DL.DDP5.1][Sound:Eng AC3 5.1/Thai AC3 2.0:Master][ SUB:Eng/Thai.PGS]




    ลิโอเนล เอสส์ร็อก (เอ็ดเวิร์ด นอร์ตัน) นักสืบเอกชนผู้โดดเดี่ยวซึ่งมีโรคทูเร็ตต์ติดตัว ในขณะที่เขาต้องวัดดวงเพื่อไขปริศนาคดีฆาตกรรมอาจารย ์และเพื่อนเพียงคนเดียวของเขา แฟรงค์ มินนา (บรูซ วิลลิส) ด้วยเงื่อนงำเพียงเล็กน้อยและจิตใจที่หมกมุ่นแต่เป็น เครื่องจักรอันทรงพลังของเขา ลิโอเนลจะเปิดเผยความลับที่ถูกปิดไว้อย่างมิดชิดซึ่ง กุมชะตาของทั้งเมืองไว้และยังไม่รู้ว่าจะจบลงแบบใด ในปริศนาที่จะนำพาเขาจากคลับแจ๊สคลุ้งแอลกอฮอล์ในฮาร ์เลมไปยังสลัมอันแร้นแค้นของบรูคลิน และท้ายที่สุดไปยังคฤหาสน์สีทองอร่ามของผู้มีอิทธิพล แห่งนครนิวยอร์ค ลิโอเนลต้องต่อสู้กับหมู่โจร การคอรัปชั่น และชายที่อันตรายที่สุดในเมืองเพื่อเป็นเกียรติแก่เพ ื่อนของเขาและช่วยเหลือหญิงผู้ที่อาจเป็นความหวังแห่ งหนทางรอดของเขาเอง

    Format : Matroska
    Format version : Version 4
    File size : 3.98 GiB
    Duration : 2 h 24 min
    Overall bit rate : 3 950 kb/s
    Movie name : Motherless.Brooklyn.2019.1080p.WEB-DL.DDP5.1.Th Mst_©GOLD CUP™

    Video
    ID : 1
    Format : AVC
    Format/Info : Advanced Video Codec
    Format profile : [email protected]
    Format settings : CABAC / 1 Ref Frames
    Format settings, CABAC : Yes
    Format settings, Reference frames : 1 frame
    Format settings, GOP : M=1, N=25
    Codec ID : V_MPEG4/ISO/AVC
    Duration : 2 h 24 min
    Bit rate mode : Constant
    Bit rate : 3 000 kb/s
    Width : 1 920 pixels
    Height : 1 040 pixels
    Display aspect ratio : 1.85:1
    Frame rate mode : Constant
    Frame rate : 29.970 (30000/1001) FPS
    Color space : YUV
    Chroma subsampling : 4:2:0
    Bit depth : 8 bits
    Scan type : Progressive
    Bits/(Pixel*Frame) : 0.050
    Stream size : 3.02 GiB (76%)
    Title : Motherless.Brooklyn.2019.1080p.WEB-DL.DDP5.1.Th Mst_©GOLD CUP™
    Language : English
    Default : Yes
    Forced : No

    Audio #1
    ID : 2
    Format : AC-3
    Format/Info : Audio Coding 3
    Commercial name : Dolby Digital
    Codec ID : A_AC3
    Duration : 2 h 24 min
    Bit rate mode : Constant
    Bit rate : 256 kb/s
    Channel(s) : 2 channels
    Channel layout : L R
    Sampling rate : 44.1 kHz
    Frame rate : 28.711 FPS (1536 SPF)
    Compression mode : Lossy
    Stream size : 264 MiB (6%)
    Title : 2.0 AC3 Th 256k 264m_©GOLD CUP™
    Language : Thai
    Service kind : Complete Main
    Default : Yes
    Forced : No

    Audio #2
    ID : 3
    Format : E-AC-3
    Format/Info : Enhanced AC-3
    Commercial name : Dolby Digital Plus
    Codec ID : A_EAC3
    Duration : 2 h 24 min
    Bit rate mode : Constant
    Bit rate : 640 kb/s
    Channel(s) : 6 channels
    Channel layout : L R C LFE Ls Rs
    Sampling rate : 48.0 kHz
    Frame rate : 31.250 FPS (1536 SPF)
    Compression mode : Lossy
    Stream size : 661 MiB (16%)
    Title : 6.1 AC3 EN 640K 661M_©GOLD CUP™
    Language : English
    Service kind : Complete Main
    Default : No
    Forced : No

    Text #1
    ID : 4
    Format : PGS
    Muxing mode : zlib
    Codec ID : S_HDMV/PGS
    Codec ID/Info : Picture based subtitle format used on BDs/HD-DVDs
    Duration : 2 h 23 min
    Bit rate : 31.0 kb/s
    Count of elements : 4720
    Stream size : 31.9 MiB (1%)
    Title : TH.PGS.WHITE.73-70-10_©GOLD CUP™
    Language : Thai
    Default : Yes
    Forced : No

    Text #2
    ID : 5
    Format : PGS
    Muxing mode : zlib
    Codec ID : S_HDMV/PGS
    Codec ID/Info : Picture based subtitle format used on BDs/HD-DVDs
    Duration : 2 h 17 min
    Bit rate : 34.4 kb/s
    Count of elements : 5136
    Stream size : 33.7 MiB (1%)
    Title : EN.PGS.PURPLE.85-60-10_©GOLD CUP™
    Language : English
    Default : No
    Forced : No

    Text #3
    ID : 6
    Format : PGS
    Muxing mode : zlib
    Codec ID : S_HDMV/PGS
    Codec ID/Info : Picture based subtitle format used on BDs/HD-DVDs
    Duration : 2 h 16 min
    Bit rate : 36.0 kb/s
    Count of elements : 4930
    Stream size : 35.3 MiB (1%)
    Title : EN.SDH.PGS.ORENG.85-60-10_©GOLD CUP™
    Language : English
    Default : No
    Forced : No






    Download: cornfile
    http://cornfile.com/6o1z814d7t1d
    Download: mekafile
    http://www.mekafile.com/dl.php?f=kS2fdcc77Rkl

  2. The Following 5 Users Say Thank You to Duckload.us For This Useful Post:

    amorn wichian (03-30-2020), Jodz14 (04-01-2020), Liquidman (03-31-2020), noi54 (03-31-2020), Tatum03 (03-30-2020)

  3. #2
    Senior Member
    สมัครเมื่อ
    Oct 2013
    ที่อยู่
    Thailand
    โพสต์
    1,334
    Thanks
    1,205
    Thanked 0 Times in 0 Posts
    ขอบคุณมาก

  4. #3
    Senior Member
    สมัครเมื่อ
    Jun 2014
    โพสต์
    3,799
    Thanks
    0
    Thanked 0 Times in 0 Posts
    ขอบคุณครับ

  5. #4
    Senior Member
    สมัครเมื่อ
    Jul 2012
    โพสต์
    6,723
    Thanks
    0
    Thanked 0 Times in 0 Posts
    ขอบคุณมากจ้า

  6. #5
    Senior Member
    สมัครเมื่อ
    Jul 2013
    โพสต์
    575
    Thanks
    0
    Thanked 0 Times in 0 Posts
    ขอบคุณครับ

+ ตอบกลับกระทู้

ข้อมูลกระทู้

Users Browsing this Thread

ในขณะนี้มี 1 ท่านดูกระทู้อยู่. (0 สมาชิกและ 1 ผู้เยี่ยมชม)

     

กฎการโพสต์ข้อความ

  • ท่าน ไม่สามารถ ตั้งกระทู้ใหม่ได้
  • ท่าน ไม่สามารถ ตอบกระทู้ได้
  • ท่าน ไม่สามารถ แนบไฟล์ได้
  • ท่าน ไม่สามารถ แก้ไขข้อความโพสต์ได้
  • BB code สถานะ เปิด
  • Smilies สถานะ เปิด
  • [IMG] สถานะ เปิด
  • HTML สถานะ ปิด