+ ตอบกลับกระทู้
สรุปผลการค้นหา 1 ถึง 3 จากทั้งหมด 3
  1. #1
    Administrators รูปส่วนตัว Duckload.us
    สมัครเมื่อ
    Dec 2010
    โพสต์
    114,610
    Thanks
    7
    Thanked 120,932 Times in 54,362 Posts

    Question [ฝรั่ง]-[NETFLIX] Dragons - Rescue Riders - Hunt for the Golden Dragon (2020) ทีมมังกรผู้พิทักษ์ ล่ามังกรทองคำ -WEB-DL.AC-3.1080p. [rip from Master]-[พากย์ไทย บรรยายไทย]



    Dragons - Rescue Riders - Hunt for the Golden Dragon (2020) ทีมมังกรผู้พิทักษ์ ล่ามังกรทองคำ
    เรื่องราว นี่คือภารกิจล่าสมบัติครั้งยิ่งใหญ่ที่สุดในชีวิตของ ทีมมังกรกู้ภัยเมื่อพวกเขาต้องรีบหาไข่มังกรทองคำสุด ล้ำค่าและดูแลรักษาให้รอดพ้นจากเงื้อมมือของเหล่าโจร สลัดผู้ชั่วร้าย


    Format : Matroska
    Format version : Version 4
    File size : 1.29 GiB
    Duration : 46 min 20 s
    Overall bit rate : 3 996 kb/s
    Encoded date : UTC 2020-03-29 10:16:00
    Writing application : mkvmerge v44.0.0 ('Domino') 64-bit
    Writing library : libebml v1.3.10 + libmatroska v1.5.2

    Video
    ID : 1
    Format : AVC
    Format/Info : Advanced Video Codec
    Format profile : [email protected]
    Format settings : CABAC / 3 Ref Frames
    Format settings, CABAC : Yes
    Format settings, Reference : 3 frames
    Codec ID : V_MPEG4/ISO/AVC
    Duration : 46 min 19 s
    Bit rate : 2 648 kb/s
    Width : 1 920 pixels
    Height : 1 080 pixels
    Display aspect ratio : 16:9
    Frame rate mode : Constant
    Frame rate : 23.976 (24000/1001) FPS
    Color space : YUV
    Chroma subsampling : 4:2:0
    Bit depth : 8 bits
    Scan type : Progressive
    Bits/(Pixel*Frame) : 0.053
    Stream size : 878 MiB (66%)
    Language : English
    Default : Yes
    Forced : No

    Audio #1
    ID : 2
    Format : E-AC-3
    Format/Info : Enhanced AC-3
    Commercial name : Dolby Digital Plus
    Codec ID : A_EAC3
    Duration : 46 min 20 s
    Bit rate mode : Constant
    Bit rate : 640 kb/s
    Channel(s) : 6 channels
    Channel layout : L R C LFE Ls Rs
    Sampling rate : 48.0 kHz
    Frame rate : 31.250 FPS (1536 SPF)
    Compression mode : Lossy
    Delay relative to video : -83 ms
    Stream size : 212 MiB (16%)
    Title : AC-3 English
    Language : English
    Service kind : Complete Main
    Default : Yes
    Forced : No

    Audio #2
    ID : 3
    Format : E-AC-3
    Format/Info : Enhanced AC-3
    Commercial name : Dolby Digital Plus
    Codec ID : A_EAC3
    Duration : 46 min 20 s
    Bit rate mode : Constant
    Bit rate : 640 kb/s
    Channel(s) : 6 channels
    Channel layout : L R C LFE Ls Rs
    Sampling rate : 48.0 kHz
    Frame rate : 31.250 FPS (1536 SPF)
    Compression mode : Lossy
    Delay relative to video : -83 ms
    Stream size : 212 MiB (16%)
    Title : AC-3 Thai
    Language : Thai
    Service kind : Complete Main
    Default : No
    Forced : No

    Text #1
    ID : 4
    Format : VobSub
    Muxing mode : zlib
    Codec ID : S_VOBSUB
    Codec ID/Info : Picture based subtitle format used on DVDs
    Duration : 45 min 5 s
    Bit rate : 15.1 kb/s
    Count of elements : 808
    Stream size : 4.86 MiB (0%)
    Title : Sub Thai 1080p
    Language : Thai
    Default : No
    Forced : No

    Text #2
    ID : 5
    Format : UTF-8
    Codec ID : S_TEXT/UTF8
    Codec ID/Info : UTF-8 Plain Text
    Duration : 45 min 5 s
    Bit rate : 173 b/s
    Count of elements : 808
    Stream size : 57.4 KiB (0%)
    Title : Sub Thai SRT
    Language : Thai
    Default : No
    Forced : No

    Text #3
    ID : 6
    Format : PGS
    Muxing mode : zlib
    Codec ID : S_HDMV/PGS
    Codec ID/Info : Picture based subtitle format used on BDs/HD-DVDs
    Duration : 45 min 5 s
    Bit rate : 48.5 kb/s
    Count of elements : 1616
    Stream size : 15.6 MiB (1%)
    Title : Sub Thai PGS
    Language : Thai
    Default : Yes
    Forced : No

    Text #4
    ID : 7
    Format : VobSub
    Muxing mode : zlib
    Codec ID : S_VOBSUB
    Codec ID/Info : Picture based subtitle format used on DVDs
    Duration : 44 min 24 s
    Bit rate : 16.4 kb/s
    Count of elements : 944
    Stream size : 5.19 MiB (0%)
    Title : Sub English 1080p
    Language : English
    Default : No
    Forced : No

    Text #5
    ID : 8
    Format : UTF-8
    Codec ID : S_TEXT/UTF8
    Codec ID/Info : UTF-8 Plain Text
    Duration : 44 min 24 s
    Bit rate : 81 b/s
    Count of elements : 944
    Stream size : 26.5 KiB (0%)
    Title : Sub English SRT
    Language : English
    Default : No
    Forced : No

    Text #6
    ID : 9
    Format : PGS
    Muxing mode : zlib
    Codec ID : S_HDMV/PGS
    Codec ID/Info : Picture based subtitle format used on BDs/HD-DVDs
    Duration : 44 min 24 s
    Bit rate : 53.1 kb/s
    Count of elements : 1888
    Stream size : 16.9 MiB (1%)
    Title : Sub English PGS
    Language : English
    Default : No
    Forced : No





    Download: cornfile
    http://cornfile.com/4m0h1rd735cs
    Download: mekafile
    http://www.mekafile.com/dl.php?f=rWc1c9c77Q6O

  2. The Following 3 Users Say Thank You to Duckload.us For This Useful Post:

    amorn wichian (03-31-2020), Jodz14 (04-01-2020), smakha (เมื่อวานนี้)

  3. #2
    Senior Member
    สมัครเมื่อ
    Jun 2014
    โพสต์
    3,811
    Thanks
    0
    Thanked 0 Times in 0 Posts
    ขอบคุณครับ

  4. #3
    Senior Member
    สมัครเมื่อ
    Oct 2012
    โพสต์
    1,024
    Thanks
    1,966
    Thanked 0 Times in 0 Posts
    ลิงค์ cornfile กดดาวน์โหลดไปแล้วไม่มีไฟล์ รบกวนแก้ไขให้หน่อยครับ ขอบคุณครับ

+ ตอบกลับกระทู้

ข้อมูลกระทู้

Users Browsing this Thread

ในขณะนี้มี 1 ท่านดูกระทู้อยู่. (0 สมาชิกและ 1 ผู้เยี่ยมชม)

     

กฎการโพสต์ข้อความ

  • ท่าน ไม่สามารถ ตั้งกระทู้ใหม่ได้
  • ท่าน ไม่สามารถ ตอบกระทู้ได้
  • ท่าน ไม่สามารถ แนบไฟล์ได้
  • ท่าน ไม่สามารถ แก้ไขข้อความโพสต์ได้
  • BB code สถานะ เปิด
  • Smilies สถานะ เปิด
  • [IMG] สถานะ เปิด
  • HTML สถานะ ปิด