+ ตอบกลับกระทู้
สรุปผลการค้นหา 1 ถึง 2 จากทั้งหมด 2
  1. #1
    Administrators รูปส่วนตัว Duckload.us
    สมัครเมื่อ
    Dec 2010
    โพสต์
    114,443
    Thanks
    7
    Thanked 120,742 Times in 54,301 Posts

    Question [ฝรั่ง]-Rogue Warfare (2019)-Blu-ray.H.264.1080p. [Master]-[พากย์ไทย]



    เรื่องย่อ : กลุ่มทหารที่ดีที่สุดจากสหรัฐอเมริการัสเซียสหราชอาณ าจักรจีนและฝรั่งเศสร่วมมือกันต่อสู้เครือข่ายผู้ก่อ การร้ายใต้ดิน..

    Format : MPEG-4
    Format profile : Base Media
    Codec ID : isom (isom/iso2/avc1/mp41)
    File size : 4.66 GiB
    Duration : 1 h 42 min
    Overall bit rate : 6 479 kb/s
    Encoded date : UTC 2020-03-29 10:24:39
    Tagged date : UTC 2020-03-29 10:24:39
    Writing application : Lavf58.12.100

    Video
    ID : 1
    Format : AVC
    Format/Info : Advanced Video Codec
    Format profile : [email protected]
    Format settings : CABAC / 4 Ref Frames
    Format settings, CABAC : Yes
    Format settings, Reference frames : 4 frames
    Format settings, GOP : M=1, N=13
    Codec ID : avc1
    Codec ID/Info : Advanced Video Coding
    Duration : 1 h 42 min
    Duration_FirstFrame : 42 ms
    Bit rate : 6 279 kb/s
    Width : 1 920 pixels
    Height : 800 pixels
    Display aspect ratio : 2.40:1
    Frame rate mode : Constant
    Frame rate : 23.976 (24000/1001) FPS
    Standard : Component
    Color space : YUV
    Chroma subsampling : 4:2:0
    Bit depth : 8 bits
    Scan type : Progressive
    Bits/(Pixel*Frame) : 0.170
    Stream size : 4.51 GiB (97%)
    Encoded date : UTC 2020-03-29 10:24:39
    Tagged date : UTC 2020-03-29 10:24:39
    Color range : Limited
    Codec configuration box : avcC

    Audio
    ID : 2
    Format : AAC LC
    Format/Info : Advanced Audio Codec Low Complexity
    Codec ID : mp4a-40-2
    Duration : 1 h 42 min
    Bit rate mode : Constant
    Bit rate : 192 kb/s
    Channel(s) : 2 channels
    Channel layout : L R
    Sampling rate : 48.0 kHz
    Frame rate : 46.875 FPS (1024 SPF)
    Compression mode : Lossy
    Stream size : 144 MiB (3%)
    Language : Thai
    Default : Yes
    Alternate group : 1
    Encoded date : UTC 2020-03-29 10:24:39
    Tagged date : UTC 2020-03-29 10:24:39





    Download: cornfile
    http://cornfile.com/spvex2z52kf3
    Download: mekafile
    http://www.mekafile.com/dl.php?f=Fdb35bc77Q13

  2. The Following 2 Users Say Thank You to Duckload.us For This Useful Post:

    Liquidman (03-31-2020), noi54 (03-31-2020)

  3. #2
    Senior Member
    สมัครเมื่อ
    Jun 2014
    โพสต์
    3,799
    Thanks
    0
    Thanked 0 Times in 0 Posts
    ขอบคุณครับ

+ ตอบกลับกระทู้

ข้อมูลกระทู้

Users Browsing this Thread

ในขณะนี้มี 1 ท่านดูกระทู้อยู่. (0 สมาชิกและ 1 ผู้เยี่ยมชม)

     

กฎการโพสต์ข้อความ

  • ท่าน ไม่สามารถ ตั้งกระทู้ใหม่ได้
  • ท่าน ไม่สามารถ ตอบกระทู้ได้
  • ท่าน ไม่สามารถ แนบไฟล์ได้
  • ท่าน ไม่สามารถ แก้ไขข้อความโพสต์ได้
  • BB code สถานะ เปิด
  • Smilies สถานะ เปิด
  • [IMG] สถานะ เปิด
  • HTML สถานะ ปิด