+ ตอบกลับกระทู้
สรุปผลการค้นหา 1 ถึง 3 จากทั้งหมด 3
  1. #1
    Administrators รูปส่วนตัว Duckload.us
    สมัครเมื่อ
    Dec 2010
    โพสต์
    114,447
    Thanks
    7
    Thanked 120,743 Times in 54,302 Posts

    Question [ฝรั่ง] • [ภาพคมชัดสูงและบรรยายไทย MASTER] Onward (2020) คู่ซ่าล่ามนต์มหัศจรรย์ [เสียงไทยโรง 5.1 + อังกฤษ 5.1] [บรรยายไทย + อังกฤษ] [From AMZN-DL 1080p]



    เรื่องราวที่เกิดขึ้นในย่านชานเมืองบนโลกแฟนตาซีที่ม ีทั้งชาวเอลฟ์ โทรลล์ และเทวดาอาศัยอยู่ โดยหนังตั้งใจจะนำเสนอว่าเวทมนตร์มันเคยมีอยู่จริง แต่เป็นเวลาเนิ่นนานมาแล้วนับตั้งแต่มันถูกหลงลืมไป แล้วก็ถูกแทนที่ด้วยเทคโนโลยีอันทันสมัย คุณจะได้พบกับ 2 พี่น้อง "เอียน ไลท์ฟุต" (พากย์เสียงโดย ทอม ฮอลแลนด์) และ "บาร์ลีย์ ไลท์ฟุต" (พากย์เสียงโดย คริส แพรตต์) ผู้ที่พ่อของพวกเขาตายไปตั้งแต่พวกเขายังเด็กมากเกิน กว่าจะสามารถจดจำพ่อของพวกเขาได้ เมื่อถึงวันเกิดครบรอบ 16 ปีของ เอียน แม่ของพวกเขา "ลอว์เรล" (พากย์เสียงโดย จูเลีย หลุยส์-เดรย์ฟัส) ก็ได้มอบของขวัญอันแสนพิเศษให้กับพวกเขา ซึ่งมันคือไม้เท้าของพ่อมดที่พ่อของพวกเขาทิ้งเอาไว้ ให้ และมนต์วิเศษนั้นมันก็ได้พาพ่อของพวกเขาย้อนกลับมาเพ ื่อที่วันหนึ่งเขาจะได้พบกันลูก ๆ ของเขาที่เติบโตขึ้นมา แต่มันก็มีบางอย่างที่ผิดเพี้ยนไป 2 พี่น้องจึงต้องออกเดินทางไปตามหาและช่วยเหลือพ่อของพ วกเขา

    Format : Matroska
    Format version : Version 4
    File size : 6.64 GiB
    Duration : 1 h 42 min
    Overall bit rate : 9 281 kb/s
    Encoded date : UTC 2020-03-29 08:43:27
    Writing application : mkvmerge v44.0.0 ('Domino') 64-bit
    Writing library : libebml v1.3.10 + libmatroska v1.5.2

    Video
    ID : 1
    Format : AVC
    Format/Info : Advanced Video Codec
    Format profile : [email protected]
    Format settings : CABAC / 4 Ref Frames
    Format settings, CABAC : Yes
    Format settings, Reference frames : 4 frames
    Codec ID : V_MPEG4/ISO/AVC
    Duration : 1 h 42 min
    Bit rate mode : Constant
    Bit rate : 8 136 kb/s
    Nominal bit rate : 10 000 kb/s
    Width : 1 920 pixels
    Height : 800 pixels
    Display aspect ratio : 2.40:1
    Frame rate mode : Constant
    Frame rate : 23.976 (24000/1001) FPS
    Color space : YUV
    Chroma subsampling : 4:2:0
    Bit depth : 8 bits
    Scan type : Progressive
    Bits/(Pixel*Frame) : 0.221
    Stream size : 5.82 GiB (88%)
    Default : Yes
    Forced : No
    Color range : Limited
    Color primaries : BT.709
    Transfer characteristics : BT.709
    Matrix coefficients : BT.709

    Audio #1
    ID : 2
    Format : E-AC-3
    Format/Info : Enhanced AC-3
    Commercial name : Dolby Digital Plus
    Codec ID : A_EAC3
    Duration : 1 h 42 min
    Bit rate mode : Constant
    Bit rate : 640 kb/s
    Channel(s) : 6 channels
    Channel layout : L R C LFE Ls Rs
    Sampling rate : 48.0 kHz
    Frame rate : 31.250 FPS (1536 SPF)
    Compression mode : Lossy
    Stream size : 469 MiB (7%)
    Title : English
    Language : English
    Service kind : Complete Main
    Default : Yes
    Forced : No

    Audio #2
    ID : 3
    Format : AC-3
    Format/Info : Audio Coding 3
    Commercial name : Dolby Digital
    Codec ID : A_AC3
    Duration : 1 h 42 min
    Bit rate mode : Constant
    Bit rate : 448 kb/s
    Channel(s) : 6 channels
    Channel layout : L R C LFE Ls Rs
    Sampling rate : 48.0 kHz
    Frame rate : 31.250 FPS (1536 SPF)
    Bit depth : 16 bits
    Compression mode : Lossy
    Stream size : 328 MiB (5%)
    Language : Thai
    Service kind : Complete Main
    Default : No
    Forced : No

    Text #1
    ID : 4
    Format : PGS
    Muxing mode : zlib
    Codec ID : S_HDMV/PGS
    Codec ID/Info : Picture based subtitle format used on BDs/HD-DVDs
    Duration : 1 h 31 min
    Bit rate : 54.1 kb/s
    Count of elements : 3136
    Stream size : 35.3 MiB (1%)
    Language : Thai
    Default : Yes
    Forced : No

    Text #2
    ID : 5
    Format : PGS
    Muxing mode : zlib
    Codec ID : S_HDMV/PGS
    Codec ID/Info : Picture based subtitle format used on BDs/HD-DVDs
    Duration : 1 h 31 min
    Bit rate : 48.0 kb/s
    Count of elements : 3136
    Stream size : 31.4 MiB (0%)
    Language : Thai
    Default : No
    Forced : No

    Text #3
    ID : 6
    Format : VobSub
    Muxing mode : zlib
    Codec ID : S_VOBSUB
    Codec ID/Info : Picture based subtitle format used on DVDs
    Duration : 1 h 31 min
    Bit rate : 12.0 kb/s
    Count of elements : 1568
    Stream size : 7.86 MiB (0%)
    Language : Thai
    Default : No
    Forced : No

    Text #4
    ID : 7
    Format : VobSub
    Muxing mode : zlib
    Codec ID : S_VOBSUB
    Codec ID/Info : Picture based subtitle format used on DVDs
    Duration : 1 h 31 min
    Bit rate : 10.8 kb/s
    Count of elements : 1568
    Stream size : 7.07 MiB (0%)
    Language : Thai
    Default : No
    Forced : No

    Text #5
    ID : 8
    Format : UTF-8
    Codec ID : S_TEXT/UTF8
    Codec ID/Info : UTF-8 Plain Text
    Duration : 1 h 35 min
    Bit rate : 75 b/s
    Count of elements : 1904
    Stream size : 53.0 KiB (0%)
    Title : English [SDH]
    Language : English
    Default : No
    Forced : No

    Menu
    00:00:00.000 : en:Studio Logo
    00:00:49.000 : en:Long ago
    00:03:04.000 : en:Title Sequence
    00:03:09.000 : en:Ian's morning
    00:05:03.000 : en:Officer Bronco comes to Ligjtfoots
    00:07:03.000 : en:Ian meet Dad's friend
    00:08:14.000 : en:Making a list
    00:09:34.000 : en:Ian starts his day
    00:12:44.000 : en:Ian misses his Dad
    00:14:53.000 : en:A gift from Dad
    00:19:17.000 : en:Ian is at his room
    00:20:38.000 : en:Barley comes up with something
    00:23:46.000 : en:Barley drives his car
    00:25:34.000 : en:Learning magic
    00:27:25.000 : en:The boys look for the Manticore
    00:31:21.000 : en:The Manticore comes back
    00:32:49.000 : en:Laurel worries about the boys
    00:36:33.000 : en:Guinevere gets a trouble
    00:39:34.000 : en:Ian tries magic again
    00:42:48.000 : en:The Manticore talks to Laurel
    00:44:00.000 : en:Ian drives Guinevere
    00:47:48.000 : en:The spell wears off
    00:51:43.000 : en:Barley argues with Ian
    00:54:59.000 : en:Grecklin of the Pawn shop
    00:56:07.000 : en:Bronco calls Laurel
    00:57:24.000 : en:Raven's Point
    01:03:06.000 : en:Bronco chases the boys
    01:07:05.000 : en:The boys follow the birds
    01:08:49.000 : en:Ian likes the spell
    01:10:06.000 : en:Laurel encounters Pixie Dusters
    01:11:12.000 : en:Barley talks about Dad
    01:13:30.000 : en:The boys are in dangerous
    01:15:58.000 : en:Back where they started
    01:17:59.000 : en:Barley cannot give it up
    01:20:26.000 : en:It's curse
    01:22:44.000 : en:I am a mighty warrior
    01:24:26.000 : en:Ian's decision
    01:26:59.000 : en:What Ian see
    01:30:07.000 : en:Ian back to his school
    01:32:53.000 : en:End Credits





    6.64 GB
    http://cornfile.com/tjkhvab45u9h
    http://www.mekafile.com/dl.php?f=xv8d40c77ZrF
    3.90 GB
    http://cornfile.com/9x592zvszckw
    http://www.mekafile.com/dl.php?f=pB659cc78aT2

  2. The Following 3 Users Say Thank You to Duckload.us For This Useful Post:

    smakha (04-02-2020), Tatum03 (03-30-2020), Tellmon (03-31-2020)

  3. #2
    Senior Member
    สมัครเมื่อ
    Oct 2013
    ที่อยู่
    Thailand
    โพสต์
    1,334
    Thanks
    1,205
    Thanked 0 Times in 0 Posts
    ขอบคุณมาก

  4. #3
    Senior Member
    สมัครเมื่อ
    Jun 2014
    โพสต์
    3,799
    Thanks
    0
    Thanked 0 Times in 0 Posts
    ขอบคุณครับ

+ ตอบกลับกระทู้

ข้อมูลกระทู้

Users Browsing this Thread

ในขณะนี้มี 1 ท่านดูกระทู้อยู่. (0 สมาชิกและ 1 ผู้เยี่ยมชม)

     

กฎการโพสต์ข้อความ

  • ท่าน ไม่สามารถ ตั้งกระทู้ใหม่ได้
  • ท่าน ไม่สามารถ ตอบกระทู้ได้
  • ท่าน ไม่สามารถ แนบไฟล์ได้
  • ท่าน ไม่สามารถ แก้ไขข้อความโพสต์ได้
  • BB code สถานะ เปิด
  • Smilies สถานะ เปิด
  • [IMG] สถานะ เปิด
  • HTML สถานะ ปิด