+ ตอบกลับกระทู้
สรุปผลการค้นหา 1 ถึง 2 จากทั้งหมด 2
  1. #1
    Administrators รูปส่วนตัว Duckload.us
    สมัครเมื่อ
    Dec 2010
    โพสต์
    114,633
    Thanks
    7
    Thanked 120,980 Times in 54,385 Posts

    Question [ฝรั่ง]-ใหม่ [* 1080p WEB-DL ไฟล์เล็กคุณภาพสูง! *] Brahms: The Boy II (2020) : ตุ๊กตาซ่อนผี 2 [พากย์ไทยโรง 5.1 + เสียงอังกฤษ DD5.1] [บรรยายอังกฤษ] [เสียงไทยโรง 2.0 Modifiy 5.1]



    ••• 1080p.WEB-DL.THR5.1.H264 •••
    พากย์ไทยโรง 5.1 + เสียงอังกฤษ DD5.1 + บรรยายอังกฤษ

    Brahms The Boy 2 ตุ๊กตาซ่อนผีกลับมาสร้างความสยองอีกครั้งโดยทีมสร้าง ชุดเดิม หลังจากภาคแรกประสบความสำเร็จอย่างงดงาม ครั้งนี้จะมอบความหลอนครั้งใหม่ที่ใหญ่กว่า เมื่อคู่รัก ลิซ่า (เคที่ โฮส์มส์) และ ฌอน (โอเวน เยโอแมน) พร้อมด้วยลูกชาย จู๊ด (คริสโตเฟอร์ คอนเวอรี่) ได้ย้ายมาอาศัยในคฤหาสน์ฮีลเชียร์โดยพวกเขายังไม่รู้ ปูมหลังอันน่าขนลุกของที่แห่งนั้น และแล้วความสยองก็บังเกิดเมื่อจู๊ดได้พบกับเพื่อนใหม ่เป็นตุ๊กตาขนาดเท่าคนจริงนามว่า “บรามส์”!

    Code:
    Format                      : Matroska
    Format version              : Version 4
    File size                   : 3.38 GiB
    Duration                    : 1 h 26 min
    Overall bit rate            : 5 584 kb/s
    Movie name                  : [email protected]-Siambit
    
    Video
    ID                          : 1
    Format                      : AVC
    Format/Info                 : Advanced Video Codec
    Format profile              : [email protected]
    Format settings             : CABAC / 5 Ref Frames
    Format settings, CABAC      : Yes
    Format settings, Reference  : 5 frames
    Codec ID                    : V_MPEG4/ISO/AVC
    Duration                    : 1 h 26 min
    Bit rate                    : 4 558 kb/s
    Width                       : 1 920 pixels
    Height                      : 804 pixels
    Display aspect ratio        : 2.40:1
    Frame rate mode             : Constant
    Frame rate                  : 23.976 (23976/1000) FPS
    Color space                 : YUV
    Chroma subsampling          : 4:2:0
    Bit depth                   : 8 bits
    Scan type                   : Progressive
    Bits/(Pixel*Frame)          : 0.123
    Stream size                 : 2.76 GiB (82%)
    Title                       : [email protected]-Siambit
    Language                    : English
    Default                     : Yes
    Forced                      : No
    Color range                 : Limited
    Color primaries             : BT.709
    Transfer characteristics    : BT.709
    Matrix coefficients         : BT.709
    
    Audio #1
    ID                          : 2
    Format                      : AC-3
    Format/Info                 : Audio Coding 3
    Commercial name             : Dolby Digital
    Codec ID                    : A_AC3
    Duration                    : 1 h 26 min
    Bit rate mode               : Constant
    Bit rate                    : 640 kb/s
    Channel(s)                  : 6 channels
    Channel layout              : L R C LFE Ls Rs
    Sampling rate               : 48.0 kHz
    Frame rate                  : 31.250 FPS (1536 SPF)
    Compression mode            : Lossy
    Delay relative to video     : -42 ms
    Stream size                 : 396 MiB (11%)
    Title                       : ThaiRong 5.1 @ 640 kb/s By [email protected]
    Language                    : Thai
    Service kind                : Complete Main
    Default                     : Yes
    Forced                      : Yes
    
    Audio #2
    ID                          : 3
    Format                      : AC-3
    Format/Info                 : Audio Coding 3
    Commercial name             : Dolby Digital
    Codec ID                    : A_AC3
    Duration                    : 1 h 26 min
    Bit rate mode               : Constant
    Bit rate                    : 384 kb/s
    Channel(s)                  : 6 channels
    Channel layout              : L R C LFE Ls Rs
    Sampling rate               : 48.0 kHz
    Frame rate                  : 31.250 FPS (1536 SPF)
    Compression mode            : Lossy
    Delay relative to video     : -42 ms
    Stream size                 : 238 MiB (7%)
    Title                       : English DD5.1 @ 384 kb/s
    Language                    : English
    Service kind                : Complete Main
    Default                     : No
    Forced                      : No
    
    Text
    ID                          : 4
    Format                      : UTF-8
    Codec ID                    : S_TEXT/UTF8
    Codec ID/Info               : UTF-8 Plain Text
    Duration                    : 1 h 18 min
    Bit rate                    : 40 b/s
    Count of elements           : 820
    Stream size                 : 23.4 KiB (0%)
    Language                    : English
    Default                     : Yes
    Forced                      : No
    
    Menu
    00:00:00.000                : en:1
    00:10:05.105                : en:2
    00:19:08.815                : en:3
    00:30:05.638                : en:4
    00:40:50.658                : en:5
    00:48:07.678                : en:6
    00:57:30.824                : en:7
    01:10:35.233                : en:8
    01:19:57.378                : en:9












    Download: cornfile
    http://cornfile.com/gaumdjbzxhvy
    Download: mekafile
    http://www.mekafile.com/dl.php?f=rb0492c7mGRX

  2. #2
    Senior Member
    สมัครเมื่อ
    Jun 2014
    โพสต์
    3,903
    Thanks
    0
    Thanked 0 Times in 0 Posts
    ขอบคุณครับ

+ ตอบกลับกระทู้

ข้อมูลกระทู้

Users Browsing this Thread

ในขณะนี้มี 1 ท่านดูกระทู้อยู่. (0 สมาชิกและ 1 ผู้เยี่ยมชม)

     

กฎการโพสต์ข้อความ

  • ท่าน ไม่สามารถ ตั้งกระทู้ใหม่ได้
  • ท่าน ไม่สามารถ ตอบกระทู้ได้
  • ท่าน ไม่สามารถ แนบไฟล์ได้
  • ท่าน ไม่สามารถ แก้ไขข้อความโพสต์ได้
  • BB code สถานะ เปิด
  • Smilies สถานะ เปิด
  • [IMG] สถานะ เปิด
  • HTML สถานะ ปิด