+ ตอบกลับกระทู้
สรุปผลการค้นหา 1 ถึง 4 จากทั้งหมด 4
  1. #1
    Administrators รูปส่วนตัว Duckload.us
    สมัครเมื่อ
    Dec 2010
    โพสต์
    114,628
    Thanks
    7
    Thanked 120,980 Times in 54,385 Posts

    Thumbs up [จีน]-Miss Truth นิติเวชหญิงแห่งต้าถัง จบ -Encode.H.264.720p. [From TV]-[Soundtrack บรรยายไทย]



    Miss Truth ซับไทย เรื่องราวของ หรั่นเหยียน นิติเวชหญิงแห่งต้าถัง หญิงสาวผู้ยากจนอายุสิบแปดที่เติบโตมากับสาวใช้ เพื่อที่จะได้หาความจริงเกี่ยวกับการตายของผู้เป็นแม ่ นางจึงเรียนรู้เกี่ยวกับการชันสูตรศพ เพื่อค้นหาเบาะแสสาเหตุการตายของแม่ พร้อมกับช่วยคลี่คลายคดีต่างๆ ที่เกิดขึ้น และได้พบกับ กับเจ้าหน้าที่ฝ่ายตุลาการและนักฆ่าโดยบังเอิญ จนกลายเป็นว่าทั้งเจ้าหน้าที่และนักฆ่าต่างก็ตกหลุมร ักนางเข้าให้แล้ว ความรักสามเศร้าครั้งนี้จะจบลงเช่นไร รักแท้ที่เกิดขึ้นจากค้นหาความจริงในครั้งนี้ จะจบลงเช่นไร ลองติดตามกันได้ใน นิติเวชหญิงแห่งต้าถัง Miss Truth ซับไทย

    Format : MPEG-4
    Format profile : Base Media
    Codec ID : isom (isom/iso2/avc1/mp41)
    File size : 1.05 GiB
    Duration : 34 min 9 s
    Overall bit rate : 4 385 kb/s

    Video
    ID : 1
    Format : AVC
    Format/Info : Advanced Video Codec
    Format profile : [email protected]
    Format settings : CABAC / 4 Ref Frames
    Format settings, CABAC : Yes
    Format settings, Reference frames : 4 frames
    Format settings, GOP : M=1, N=76
    Codec ID : avc1
    Codec ID/Info : Advanced Video Coding
    Duration : 34 min 9 s
    Duration_FirstFrame : 46 ms
    Bit rate : 4 172 kb/s
    Width : 1 920 pixels
    Height : 1 080 pixels
    Display aspect ratio : 16:9
    Frame rate mode : Constant
    Frame rate : 25.000 FPS
    Color space : YUV
    Chroma subsampling : 4:2:0
    Bit depth : 8 bits
    Scan type : Progressive
    Bits/(Pixel*Frame) : 0.080
    Stream size : 1 019 MiB (95%)
    Tagged date : UTC 2020-03-31 06:29:15
    Codec configuration box : avcC

    Audio
    ID : 2
    Format : AAC LC
    Format/Info : Advanced Audio Codec Low Complexity
    Codec ID : mp4a-40-2
    Duration : 34 min 9 s
    Bit rate mode : Constant
    Bit rate : 210 kb/s
    Channel(s) : 2 channels
    Channel layout : L R
    Sampling rate : 44.1 kHz
    Frame rate : 43.066 FPS (1024 SPF)
    Compression mode : Lossy
    Stream size : 51.2 MiB (5%)
    Default : Yes
    Alternate group : 1
    Tagged date : UTC 2020-03-31 06:29:15





    Download: filecondo
    20.31 GB
    http://www.filecondo.com/dl.php?f=x838691Jl25h
    Download: cornfile
    Miss Truth (2020) นิติเวชหญิงแห่งต้าถัง ซับไทย EP01.mp4 - 641.1 MB
    Miss Truth (2020) นิติเวชหญิงแห่งต้าถัง ซับไทย EP02.mp4 - 355.2 MB
    Miss Truth (2020) นิติเวชหญิงแห่งต้าถัง ซับไทย EP03.mp4 - 338.5 MB
    Miss Truth (2020) นิติเวชหญิงแห่งต้าถัง ซับไทย EP04.mp4 - 292.7 MB
    Miss Truth (2020) นิติเวชหญิงแห่งต้าถัง ซับไทย EP05.mp4 - 342.3 MB
    Miss Truth (2020) นิติเวชหญิงแห่งต้าถัง ซับไทย EP06.mp4 - 399.8 MB
    Miss Truth (2020) นิติเวชหญิงแห่งต้าถัง ซับไทย EP07.mp4 - 552.7 MB
    Miss Truth (2020) นิติเวชหญิงแห่งต้าถัง ซับไทย EP08.mp4 - 522.2 MB
    Miss Truth (2020) นิติเวชหญิงแห่งต้าถัง ซับไทย EP09.mp4 - 1.0 GB
    Miss Truth (2020) นิติเวชหญิงแห่งต้าถัง ซับไทย EP10.mp4 - 1.2 GB
    Miss Truth (2020) นิติเวชหญิงแห่งต้าถัง ซับไทย EP11.mp4 - 715.6 MB
    Miss Truth (2020) นิติเวชหญิงแห่งต้าถัง ซับไทย EP12.mp4 - 657.6 MB
    Miss Truth (2020) นิติเวชหญิงแห่งต้าถัง ซับไทย EP13.mp4 - 538.3 MB
    Miss Truth (2020) นิติเวชหญิงแห่งต้าถัง ซับไทย EP14.mp4 - 551.0 MB
    Miss Truth (2020) นิติเวชหญิงแห่งต้าถัง ซับไทย EP15.mp4 - 573.8 MB
    Miss Truth (2020) นิติเวชหญิงแห่งต้าถัง ซับไทย EP16.mp4 - 555.6 MB
    Miss Truth (2020) นิติเวชหญิงแห่งต้าถัง ซับไทย EP17.mp4 - 586.9 MB
    Miss Truth (2020) นิติเวชหญิงแห่งต้าถัง ซับไทย EP18.mp4 - 583.1 MB
    Miss Truth (2020) นิติเวชหญิงแห่งต้าถัง ซับไทย EP19.mp4 - 560.2 MB
    Miss Truth (2020) นิติเวชหญิงแห่งต้าถัง ซับไทย EP20.mp4 - 505.7 MB
    Miss Truth (2020) นิติเวชหญิงแห่งต้าถัง ซับไทย EP21.mp4 - 506.5 MB
    Miss Truth (2020) นิติเวชหญิงแห่งต้าถัง ซับไทย EP22.mp4 - 516.6 MB
    Miss Truth (2020) นิติเวชหญิงแห่งต้าถัง ซับไทย EP23.mp4 - 576.8 MB
    Miss Truth (2020) นิติเวชหญิงแห่งต้าถัง ซับไทย EP24.mp4 - 620.7 MB
    Miss Truth (2020) นิติเวชหญิงแห่งต้าถัง ซับไทย EP25.mp4 - 624.6 MB
    Miss Truth (2020) นิติเวชหญิงแห่งต้าถัง ซับไทย EP26.mp4 - 479.3 MB
    Miss Truth (2020) นิติเวชหญิงแห่งต้าถัง ซับไทย EP27.mp4 - 562.9 MB
    Miss Truth (2020) นิติเวชหญิงแห่งต้าถัง ซับไทย EP28.mp4 - 598.0 MB
    Miss Truth (2020) นิติเวชหญิงแห่งต้าถัง ซับไทย EP29.mp4 - 757.1 MB
    Miss Truth (2020) นิติเวชหญิงแห่งต้าถัง ซับไทย EP30.mp4 - 691.7 MB
    Miss Truth (2020) นิติเวชหญิงแห่งต้าถัง ซับไทย EP31.mp4 - 653.9 MB
    Miss Truth (2020) นิติเวชหญิงแห่งต้าถัง ซับไทย EP32.mp4 - 563.8 MB
    Miss Truth (2020) นิติเวชหญิงแห่งต้าถัง ซับไทย EP33.mp4 - 569.3 MB
    Miss Truth (2020) นิติเวชหญิงแห่งต้าถัง ซับไทย EP34.mp4 - 556.8 MB
    Miss Truth (2020) นิติเวชหญิงแห่งต้าถัง ซับไทย EP35.mp4 - 589.3 MB
    Miss Truth (2020) นิติเวชหญิงแห่งต้าถัง ซับไทย EP36.mp4 - 397.4 MB

  2. The Following 2 Users Say Thank You to Duckload.us For This Useful Post:

    agaligo (04-07-2020), momotarosu (04-06-2020)

  3. #2
    Member
    สมัครเมื่อ
    Mar 2014
    โพสต์
    42
    Thanks
    68
    Thanked 0 Times in 0 Posts
    cornflie ตอนที่ 8 ตอนที่ 13 และ 36 ขึ้น code 403 ค่ะรบกวนแก้ไขให้หน่อยนะคะ ขอบคุณล่วงหน้าค่ะ

  4. #3
    Senior Member
    สมัครเมื่อ
    Jun 2014
    โพสต์
    3,903
    Thanks
    0
    Thanked 0 Times in 0 Posts
    ขอบคุณครับ

  5. #4
    Administrators รูปส่วนตัว Duckload.us
    สมัครเมื่อ
    Dec 2010
    โพสต์
    114,628
    Thanks
    7
    Thanked 120,980 Times in 54,385 Posts
    อ้างอิง โพสต์ต้นฉบับโดยคุณ momotarosu ดูโพสต์
    cornflie ตอนที่ 8 ตอนที่ 13 และ 36 ขึ้น code 403 ค่ะรบกวนแก้ไขให้หน่อยนะคะ ขอบคุณล่วงหน้าค่ะ
    ตอนนี้โหลดได้แล้วครับ

+ ตอบกลับกระทู้

ข้อมูลกระทู้

Users Browsing this Thread

ในขณะนี้มี 1 ท่านดูกระทู้อยู่. (0 สมาชิกและ 1 ผู้เยี่ยมชม)

     

กฎการโพสต์ข้อความ

  • ท่าน ไม่สามารถ ตั้งกระทู้ใหม่ได้
  • ท่าน ไม่สามารถ ตอบกระทู้ได้
  • ท่าน ไม่สามารถ แนบไฟล์ได้
  • ท่าน ไม่สามารถ แก้ไขข้อความโพสต์ได้
  • BB code สถานะ เปิด
  • Smilies สถานะ เปิด
  • [IMG] สถานะ เปิด
  • HTML สถานะ ปิด