+ ตอบกลับกระทู้
สรุปผลการค้นหา 1 ถึง 5 จากทั้งหมด 5
  1. #1
    Administrators รูปส่วนตัว Duckload.us
    สมัครเมื่อ
    Dec 2010
    โพสต์
    114,610
    Thanks
    7
    Thanked 120,942 Times in 54,365 Posts

    Question [ฝรั่ง]-[พากย์ไทยมาสเตอร์] Between Worlds (2018) วิญญาณ-คลั่ง-รัก แสดงโดย Nicolas Cage, Franka Potente, Penelope Mitchell-Encode.H.264.1080p. [Rip]-[พากย์ไทย]






    PLOT


    โจ, (เคจ) คนขับรถบรรทุกโชคไม่ดีที่ตามหลอกหลอนด้วยความทรงจำขอ งภรรยาและลูกที่เสียชีวิตของเขา เขาได้พบกับจูลี่ (โพเทน) ผู้หญิงที่มีพรสวรรค์ทางจิตวิญญาณซึ่งขอความช่วยเหลื อจากโจด้วยความพยายามอย่างยิ่งยวดที่จะตามหาจิตวิญญา ณที่หายไปของลูกสาวบิลลี่ (มิทเชล) แต่วิญญาณของแมรี่ภรรยาที่ตายแล้วของโจพิสูจน์ให้เห็ นถึงความแข็งแกร่งมีร่างกายของหญิงสาวและมุ่งมั่นที่ จะจัดการธุรกิจที่ยังไม่เสร็จของเธอกับการใช้ชีวิต



    Format : Matroska
    Format version : Version 4 / Version 2
    File size : 3.78 GiB
    Duration : 1 h 26 min
    Overall bit rate : 6 258 kb/s
    Encoded date : UTC 2020-04-05 14:12:33
    Writing application : HandBrake 1.3.1 2020010400
    Writing library : Lavf58.29.100 / Lavf58.29.100
    ErrorDetectionType : Per level 1

    Video
    ID : 1
    Format : AVC
    Format/Info : Advanced Video Codec
    Format profile : [email protected]
    Format settings, CABAC : Yes
    Format settings, ReFrames : 4 frames
    Codec ID : V_MPEG4/ISO/AVC
    Duration : 1 h 26 min
    Bit rate : 5 909 kb/s
    Nominal bit rate : 6 500 kb/s
    Width : 1 920 pixels
    Height : 1 080 pixels
    Display aspect ratio : 16:9
    Frame rate mode : Constant
    Frame rate : 23.976 (24000/1001) FPS
    Color space : YUV
    Chroma subsampling : 4:2:0
    Bit depth : 8 bits
    Scan type : Progressive
    Bits/(Pixel*Frame) : 0.119
    Stream size : 3.57 GiB (94%)
    Writing library : x264 core 157 r2935 545de2f
    Default : Yes
    Forced : No
    Color range : Limited
    Color primaries : BT.709
    Transfer characteristics : BT.709
    Matrix coefficients : BT.709
    DURATION : 01:26:31.145000000

    Audio
    ID : 2
    Format : AC-3
    Format/Info : Audio Coding 3
    Mode extension : CM (complete main)
    Format settings, Endianness : Big
    Codec ID : A_AC3
    Duration : 1 h 26 min
    Bit rate mode : Constant
    Bit rate : 224 kb/s
    Channel(s) : 2 channels
    Channel positions : Front: L R
    Sampling rate : 48.0 kHz
    Frame rate : 31.250 FPS (1536 spf)
    Compression mode : Lossy
    Delay relative to video : 16 ms
    Stream size : 139 MiB (4%)
    Title : Stereo
    Language : Thai
    Default : Yes
    Forced : No
    DURATION : 01:26:31.152000000







    Download: cornfile
    http://cornfile.com/lghj5kf30s1x
    Download: mekafile
    http://www.mekafile.com/dl.php?f=na8e25c7sbLk

  2. The Following 4 Users Say Thank You to Duckload.us For This Useful Post:

    amorn wichian (04-08-2020), Jodz14 (04-09-2020), noi54 (04-08-2020), pntum (04-11-2020)

  3. #2
    Senior Member
    สมัครเมื่อ
    Jun 2014
    โพสต์
    3,903
    Thanks
    0
    Thanked 0 Times in 0 Posts
    ขอบคุณครับ

  4. #3
    Senior Member รูปส่วนตัว pntum
    สมัครเมื่อ
    Dec 2012
    โพสต์
    376
    Thanks
    355
    Thanked 0 Times in 0 Posts
    ...Thanks...

  5. #4
    Senior Member
    สมัครเมื่อ
    Jul 2013
    โพสต์
    584
    Thanks
    0
    Thanked 0 Times in 0 Posts
    ขอบคุณครับ ป๋าเคจ มาแล้ว

  6. #5
    Senior Member
    สมัครเมื่อ
    Jul 2012
    โพสต์
    6,737
    Thanks
    0
    Thanked 0 Times in 0 Posts
    ขอบคุณมากจ้า

+ ตอบกลับกระทู้

ข้อมูลกระทู้

Users Browsing this Thread

ในขณะนี้มี 1 ท่านดูกระทู้อยู่. (0 สมาชิกและ 1 ผู้เยี่ยมชม)

     

กฎการโพสต์ข้อความ

  • ท่าน ไม่สามารถ ตั้งกระทู้ใหม่ได้
  • ท่าน ไม่สามารถ ตอบกระทู้ได้
  • ท่าน ไม่สามารถ แนบไฟล์ได้
  • ท่าน ไม่สามารถ แก้ไขข้อความโพสต์ได้
  • BB code สถานะ เปิด
  • Smilies สถานะ เปิด
  • [IMG] สถานะ เปิด
  • HTML สถานะ ปิด