+ ตอบกลับกระทู้
สรุปผลการค้นหา 1 ถึง 2 จากทั้งหมด 2
  1. #1
    Administrators รูปส่วนตัว Duckload.us
    สมัครเมื่อ
    Dec 2010
    โพสต์
    114,509
    Thanks
    7
    Thanked 120,841 Times in 54,336 Posts

    Question [ฝรั่ง/แอคชั่น] (ถ่ายทำในเมืองไทยFT.ดาราสาว ยุ้ย จีรนันท์ ) Death Fighter (2017) นักสู้แห่งความตาย 1080p WEB-DL H.264 [พากย์:ไทย+อังกฤษ] [SUB:อังกฤษ]



    หนังเรื่อง Death Fighter หรือชื่อเดิมว่า White Tiger หนังแอ็คชั่นที่เข้ามาถ่ายทำในเมืองไทยเราอีกเรื่องว ่าด้วย ตำรวจหนุ่มที่ออกเดินทางตามล่าคนร้ายที่ฆ่าคู่หูของต ัวเองมายังเมืองไทยก่อนจะได้พบว่า เรื่องราวทั้งหมดเกี่ยวข้องเครือข่ายยาเสพติดและการค ้ามนุษย์ที่ซ่อนอยู่เบื้องหลังด้วย

    หนังนำแสดงโดย Matt Mullins สตันท์หนุ่มจากหนังดังหลาย ๆ เรื่องอย่าง Divergent และ Underworld: Blood Wars ที่ขยับมาเป็นพระเอกบ้าง ประกบกับดาราเกรดบีในตำนานอย่าง Don Wilson และ เจ๊ขาบู๊จอมโหดที่หายจากจอไปนานอย่าง Cynthia Rothrock ด้วย ที่สำคัญกว่านั้นนี่เป็นหนังโกอินเตอร์เรื่องแรกของ ยุ้ย จีรนันท์ มโนแจ่ม แห่ง ช่อง 7 สีอีกต่างหาก

    หนังกำกับโดย Toby Russell ที่เคยกำกับสารคดีว่าด้วยการเสียชีวิตของบรูซ ลี อย่าง Death by Misadventure: The Mysterious Life of Bruce Lee มาแล้ว

    Format : Matroska
    Format version : Version 4
    File size : 5.50 GiB
    Duration : 1 h 28 min
    Overall bit rate : 8 939 kb/s
    Movie name : Death.Fighter.2017.1080p.WEB-DL.DD2.0.H.264-SlishMay
    Encoded date : UTC 2020-04-07 05:38:02
    Writing application : mkvmerge v44.0.0 ('Domino') 64-bit
    Writing library : libebml v1.3.10 + libmatroska v1.5.2

    Video
    ID : 1
    Format : AVC
    Format/Info : Advanced Video Codec
    Format profile : [email protected]
    Format settings : CABAC / 4 Ref Frames
    Format settings, CABAC : Yes
    Format settings, Reference frames : 4 frames
    Codec ID : V_MPEG4/ISO/AVC
    Duration : 1 h 28 min
    Bit rate mode : Constant
    Bit rate : 8 585 kb/s
    Nominal bit rate : 10 000 kb/s
    Width : 1 920 pixels
    Height : 1 080 pixels
    Display aspect ratio : 16:9
    Frame rate mode : Constant
    Frame rate : 23.976 (24000/1001) FPS
    Color space : YUV
    Chroma subsampling : 4:2:0
    Bit depth : 8 bits
    Scan type : Progressive
    Bits/(Pixel*Frame) : 0.173
    Stream size : 5.28 GiB (96%)
    Title : [email protected]
    Language : English
    Default : Yes
    Forced : No
    Color range : Limited
    Color primaries : BT.709
    Transfer characteristics : BT.709
    Matrix coefficients : BT.709

    Audio #1
    ID : 2
    Format : AAC LC
    Format/Info : Advanced Audio Codec Low Complexity
    Codec ID : A_AAC-2
    Duration : 1 h 27 min
    Bit rate : 128 kb/s
    Channel(s) : 2 channels
    Channel layout : L R
    Sampling rate : 44.1 kHz
    Frame rate : 43.066 FPS (1024 SPF)
    Compression mode : Lossy
    Delay relative to video : 30 s 0 ms
    Stream size : 80.2 MiB (1%)
    Title : Thai
    Language : Thai
    Default : Yes
    Forced : Yes

    Audio #2
    ID : 3
    Format : E-AC-3
    Format/Info : Enhanced AC-3
    Commercial name : Dolby Digital Plus
    Codec ID : A_EAC3
    Duration : 1 h 28 min
    Bit rate mode : Constant
    Bit rate : 224 kb/s
    Channel(s) : 2 channels
    Channel layout : L R
    Sampling rate : 48.0 kHz
    Frame rate : 31.250 FPS (1536 SPF)
    Compression mode : Lossy
    Stream size : 141 MiB (3%)
    Language : English
    Service kind : Complete Main
    Default : No
    Forced : No

    Text
    ID : 4
    Format : UTF-8
    Codec ID : S_TEXT/UTF8
    Codec ID/Info : UTF-8 Plain Text
    Duration : 1 h 24 min
    Bit rate : 32 b/s
    Count of elements : 836
    Stream size : 20.2 KiB (0%)
    Language : English
    Default : No
    Forced : No





    Download: cornfile
    รอคิว..อัพ...
    Download: mekafile
    http://www.mekafile.com/dl.php?f=vV24e4c7uMCi

  2. The Following User Says Thank You to Duckload.us For This Useful Post:

    Jodz14 (04-09-2020)

  3. #2
    Senior Member
    สมัครเมื่อ
    Jun 2014
    โพสต์
    3,811
    Thanks
    0
    Thanked 0 Times in 0 Posts
    รออัพ cornfile
    ขอบคุณครับ

+ ตอบกลับกระทู้

ข้อมูลกระทู้

Users Browsing this Thread

ในขณะนี้มี 1 ท่านดูกระทู้อยู่. (0 สมาชิกและ 1 ผู้เยี่ยมชม)

     

กฎการโพสต์ข้อความ

  • ท่าน ไม่สามารถ ตั้งกระทู้ใหม่ได้
  • ท่าน ไม่สามารถ ตอบกระทู้ได้
  • ท่าน ไม่สามารถ แนบไฟล์ได้
  • ท่าน ไม่สามารถ แก้ไขข้อความโพสต์ได้
  • BB code สถานะ เปิด
  • Smilies สถานะ เปิด
  • [IMG] สถานะ เปิด
  • HTML สถานะ ปิด