+ ตอบกลับกระทู้
สรุปผลการค้นหา 1 ถึง 2 จากทั้งหมด 2
  1. #1
    Administrators รูปส่วนตัว Duckload.us
    สมัครเมื่อ
    Dec 2010
    โพสต์
    115,788
    Thanks
    7
    Thanked 122,194 Times in 54,834 Posts

    Question [ฝรั่ง]-Bill and Teds Bogus Journey (1991) บิลล์กับเท็ด ตอน สองหุ่นยนต์เขย่าโลก-Blu-ray.DTS.1080p. [Modified]-[Soundtrack บรรยายไทย]



    เรื่องย่อ
    The world of our distant future is a veritable utopia, thanks to the lyrics of two simple-minded 20th Century rock and rollers, Bill S. Preston, Esq. and Ted Theodore Logan. However, a would-be conquerer threatens to throw history off-track by sending most non-non-heinous evil robot Bill and Teds back to kill their good counterparts. Finding themselves dead, the boys must outwit the Grim Reaper and traverse Heaven and Hell to return to the land of the living, rescue their babes and have a most triumphant concert at the all-important Battle of the Bands.


    Format : Matroska
    Format version : Version 4
    File size : 4.24 GiB
    Duration : 1 h 33 min
    Overall bit rate mode : Variable
    Overall bit rate : 6 472 kb/s
    Encoded date : UTC 2020-04-04 14:51:49
    Writing application : mkvmerge v44.0.0 ('Domino') 64-bit
    Writing library : libebml v1.3.10 + libmatroska v1.5.2

    Video
    ID : 1
    Format : AVC
    Format/Info : Advanced Video Codec
    Format profile : [email protected]
    Format settings : CABAC / 1 Ref Frames
    Format settings, CABAC : Yes
    Format settings, Reference : 1 frame
    Codec ID : V_MPEG4/ISO/AVC
    Duration : 1 h 33 min
    Bit rate mode : Variable
    Bit rate : 4 929 kb/s
    Maximum bit rate : 14.8 Mb/s
    Width : 1 920 pixels
    Height : 1 040 pixels
    Display aspect ratio : 1.85:1
    Frame rate mode : Constant
    Frame rate : 23.976 (23976/1000) FPS
    Original frame rate : 23.976 (24000/1001) FPS
    Color space : YUV
    Chroma subsampling : 4:2:0
    Bit depth : 8 bits
    Scan type : Progressive
    Bits/(Pixel*Frame) : 0.103
    Stream size : 3.23 GiB (76%)
    Language : English
    Default : Yes
    Forced : No

    Audio
    ID : 2
    Format : DTS
    Format/Info : Digital Theater Systems
    Codec ID : A_DTS
    Duration : 1 h 33 min
    Bit rate mode : Constant
    Bit rate : 1 509 kb/s
    Channel(s) : 6 channels
    Channel layout : C L R Ls Rs LFE
    Sampling rate : 48.0 kHz
    Frame rate : 93.750 FPS (512 SPF)
    Bit depth : 24 bits
    Compression mode : Lossy
    Stream size : 1 013 MiB (23%)
    Title : DTS English
    Language : English
    Default : Yes
    Forced : No

    Text #1
    ID : 3
    Format : VobSub
    Muxing mode : zlib
    Codec ID : S_VOBSUB
    Codec ID/Info : Picture based subtitle format used on DVDs
    Duration : 1 h 27 min
    Bit rate : 8 525 b/s
    Count of elements : 765
    Stream size : 5.33 MiB (0%)
    Title : Sub Thai 1080p
    Language : Thai
    Default : No
    Forced : No

    Text #2
    ID : 4
    Format : UTF-8
    Codec ID : S_TEXT/UTF8
    Codec ID/Info : UTF-8 Plain Text
    Duration : 1 h 27 min
    Bit rate : 96 b/s
    Count of elements : 765
    Stream size : 61.6 KiB (0%)
    Title : Sub Thai SRT
    Language : Thai
    Default : No
    Forced : No

    Text #3
    ID : 5
    Format : PGS
    Muxing mode : zlib
    Codec ID : S_HDMV/PGS
    Codec ID/Info : Picture based subtitle format used on BDs/HD-DVDs
    Duration : 1 h 27 min
    Bit rate : 26.5 kb/s
    Count of elements : 1530
    Stream size : 16.6 MiB (0%)
    Title : Sub Thai PGS
    Language : Thai
    Default : Yes
    Forced : No

    Text #4
    ID : 6
    Format : VobSub
    Muxing mode : zlib
    Codec ID : S_VOBSUB
    Codec ID/Info : Picture based subtitle format used on DVDs
    Duration : 1 h 27 min
    Bit rate : 7 922 b/s
    Count of elements : 894
    Stream size : 4.95 MiB (0%)
    Title : Sub English 1080p
    Language : English
    Default : No
    Forced : No

    Text #5
    ID : 7
    Format : UTF-8
    Codec ID : S_TEXT/UTF8
    Codec ID/Info : UTF-8 Plain Text
    Duration : 1 h 27 min
    Bit rate : 40 b/s
    Count of elements : 894
    Stream size : 25.7 KiB (0%)
    Title : Sub English SRT
    Language : English
    Default : No
    Forced : No

    Text #6
    ID : 8
    Format : PGS
    Muxing mode : zlib
    Codec ID : S_HDMV/PGS
    Codec ID/Info : Picture based subtitle format used on BDs/HD-DVDs
    Duration : 1 h 27 min
    Bit rate : 25.5 kb/s
    Count of elements : 1788
    Stream size : 16.0 MiB (0%)
    Title : Sub English PGS
    Language : English
    Default : No
    Forced : No

    Menu
    00:00:00.000 : :00:00:00.000
    00:08:18.665 : :00:08:18.665
    00:15:29.929 : :00:15:29.929
    00:21:37.713 : :00:21:37.713
    00:25:27.401 : :00:25:27.401
    00:30:32.247 : :00:30:32.247
    00:36:16.049 : :00:36:16.049
    00:46:36.377 : :00:46:36.377
    00:51:27.960 : :00:51:27.960
    00:59:20.974 : :00:59:20.974
    01:08:25.685 : :01:08:25.685
    01:25:42.846 : :01:25:42.846



    http://cornfile.com/wkq3j3o75fox
    http://www.mekafile.com/dl.php?f=qW3951c7rFL3

  2. #2
    Senior Member
    สมัครเมื่อ
    Jun 2014
    โพสต์
    4,088
    Thanks
    0
    Thanked 0 Times in 0 Posts
    ขอบคุณครับ

+ ตอบกลับกระทู้

ข้อมูลกระทู้

Users Browsing this Thread

ในขณะนี้มี 1 ท่านดูกระทู้อยู่. (0 สมาชิกและ 1 ผู้เยี่ยมชม)

     

กฎการโพสต์ข้อความ

  • ท่าน ไม่สามารถ ตั้งกระทู้ใหม่ได้
  • ท่าน ไม่สามารถ ตอบกระทู้ได้
  • ท่าน ไม่สามารถ แนบไฟล์ได้
  • ท่าน ไม่สามารถ แก้ไขข้อความโพสต์ได้
  • BB code สถานะ เปิด
  • Smilies สถานะ เปิด
  • [IMG] สถานะ เปิด
  • HTML สถานะ ปิด