+ ตอบกลับกระทู้
สรุปผลการค้นหา 1 ถึง 5 จากทั้งหมด 5
  1. #1
    Administrators รูปส่วนตัว Duckload.us
    สมัครเมื่อ
    Dec 2010
    โพสต์
    137,397
    Thanks
    7
    Thanked 143,211 Times in 62,344 Posts

    Angry [ญี่ปุ่น]-[* New Encode!!! *] • Yu-Gi-Oh!: The Dark Side of Dimensions (2016) : ยูกิโอ ศึกปริศนาด้านมืด @CtHts • [พากย์ไทยโรง + เสียงอังกฤษ + เสียงญี่ปุ่น 2.0] • [บรรยายอังกฤษ!] • [* 1080p Super HQ ไฟล์เล็กคุณภาพสูง! *]



    ••• 1080p.BrRip.THR2.0.x264 •••
    พากย์ไทยโรง 2.0 + เสียงอังกฤษ 2.0 + เสียงญี่ปุ่น 2.0 + บรรยายอังกฤษ

    ยูกิโอ เกมกลคนอัจฉริยะ ศึกปริศนาด้านมืด ภาพยนตร์อนิเมชั่นที่ทำเพื่อฉลองครบรอบ 20 ปีกับการถือกำเนิดของ Yu-Gi-Oh! หรือ เกมกลคนอัจฉริยะ และถือเป็นครั้งแรกที่แฟนๆชาวไทยจะได้ดูในโรงภาพยนตร ์ สำหรับภาคนี้ทางอาจารย์ คาซูกิ ทาคาฮาชิ ก็ได้หยิบเอาเรื่องราวการต่อสู้ ดูเอล ระหว่าง ยูกิด้านมืด และ เซโตะ ไคบะ ที่แฟนๆโหวตว่าเป็นการดวลที่สนุกที่สุด

    โดยนี่จะเป็นการต่อสู้ของสุดยอดสองนักดูเอลครั้งใหม่ ที่ทุกคนไม่เห็นมาก่อน

    #YuGi #ตำนานการ์ดเกมที่ไม่มีวันลืม!


    Format : Matroska
    Format version : Version 4
    File size : 3.49 GiB
    Duration : 2 h 10 min
    Overall bit rate : 3 826 kb/s
    Movie name : {MINI Super-HQ}_Yu-Gi-Oh! The.Dark.Side.of.Dimensions.2016.1080p.BrRip.THR2. [email protected]

    Video
    ID : 1
    Format : HEVC
    Format/Info : High Efficiency Video Coding
    Format profile : Main [email protected]@High
    Codec ID : V_MPEGH/ISO/HEVC
    Duration : 2 h 10 min
    Bit rate : 3 152 kb/s
    Width : 1 920 pixels
    Height : 1 040 pixels
    Display aspect ratio : 1.85:1
    Frame rate mode : Constant
    Frame rate : 23.976 (24000/1001) FPS
    Color space : YUV
    Chroma subsampling : 4:2:0
    Bit depth : 10 bits
    Bits/(Pixel*Frame) : 0.066
    Stream size : 2.87 GiB (82%)
    Title : {MINI Super-HQ}_Yu-Gi-Oh! The.Dark.Side.of.Dimensions.2016.1080p.BrRip.THR2. [email protected]
    Writing library : x265 2.5+14-2718cb5dd67f:[Windows][GCC 7.1.0][64 bit] 10bit
    Encoding settings : cpuid=1050111 / frame-threads=3 / numa-pools=8 / wpp / no-pmode / no-pme / no-psnr / no-ssim / log-level=2 / input-csp=1 / input-res=1920x1040 / interlace=0 / total-frames=187645 / level-idc=62 / high-tier=1 / uhd-bd=0 / ref=3 / no-allow-non-conformance / no-repeat-headers / annexb / no-aud / no-hrd / info / hash=0 / no-temporal-layers / open-gop / min-keyint=23 / keyint=250 / bframes=4 / b-adapt=2 / b-pyramid / bframe-bias=0 / rc-lookahead=20 / lookahead-slices=6 / scenecut=40 / no-intra-refresh / ctu=64 / min-cu-size=8 / no-rect / no-amp / max-tu-size=32 / tu-inter-depth=1 / tu-intra-depth=1 / limit-tu=0 / rdoq-level=0 / dynamic-rd=0.00 / no-ssim-rd / signh-i-d-e / no-tskip / nr-intra=0 / nr-inter=0 / no-constrained-intra / strong-intra-smoothing / max-merge=2 / limit-refs=3 / no-limit-modes / me=1 / subme=2 / merange=57 / temporal-mvp / weightp / no-weightb / no-analyze-src-pics / deblock=0:0 / sao / no-sao-non-deblock / rd=3 / no-early-skip / rskip / no-fast-intra / no-tskip-fast / no-cu-lossless / no-b-intra / no-splitrd-skip / rdpenalty=0 / psy-rd=2.00 / psy-rdoq=0.00 / no-rd-refine / analysis-reuse-mode=0 / no-lossless / cbqpoffs=0 / crqpoffs=0 / rc=crf / crf=22.0 / qcomp=0.60 / qpstep=4 / stats-write=0 / stats-read=0 / vbv-maxrate=800000 / vbv-bufsize=800000 / vbv-init=0.9 / crf-max=0.0 / crf-min=0.0 / ipratio=1.40 / pbratio=1.30 / aq-mode=1 / aq-strength=1.00 / cutree / zone-count=0 / no-strict-cbr / qg-size=32 / no-rc-grain / qpmax=69 / qpmin=0 / no-const-vbv / sar=0 / overscan=0 / videoformat=5 / range=0 / colorprim=2 / transfer=2 / colormatrix=2 / chromaloc=0 / display-window=0 / max-cll=0,0 / min-luma=0 / max-luma=1023 / log2-max-poc-lsb=8 / vui-timing-info / vui-hrd-info / slices=1 / opt-qp-pps / opt-ref-list-length-pps / no-multi-pass-opt-rps / scenecut-bias=0.05 / no-opt-cu-delta-qp / no-aq-motion / no-hdr / no-hdr-opt / no-dhdr10-opt / analysis-reuse-level=5 / scale-factor=0 / refine-intra=0 / refine-inter=0 / refine-mv=0 / no-limit-sao / ctu-info=0
    Language : English
    Default : Yes
    Forced : No

    Audio #1
    ID : 2
    Format : AC-3
    Format/Info : Audio Coding 3
    Commercial name : Dolby Digital
    Codec ID : A_AC3
    Duration : 2 h 8 min
    Bit rate mode : Constant
    Bit rate : 384 kb/s
    Channel(s) : 2 channels
    Channel layout : L R
    Sampling rate : 48.0 kHz
    Frame rate : 31.250 FPS (1536 SPF)
    Compression mode : Lossy
    Stream size : 353 MiB (10%)
    Title : ThaiRong 2.0 @ 384 kb/s By [email protected]
    Language : Thai
    Service kind : Complete Main
    Default : No
    Forced : No

    Audio #2
    ID : 3
    Format : AAC LC
    Format/Info : Advanced Audio Codec Low Complexity
    Codec ID : A_AAC-2
    Duration : 2 h 8 min
    Bit rate : 147 kb/s
    Channel(s) : 2 channels
    Channel layout : L R
    Sampling rate : 48.0 kHz
    Frame rate : 46.875 FPS (1024 SPF)
    Compression mode : Lossy
    Delay relative to video : 9 ms
    Stream size : 135 MiB (4%)
    Title : English 2.0 @ 147 kb/s
    Language : English
    Default : Yes
    Forced : No

    Audio #3
    ID : 4
    Format : AAC LC
    Format/Info : Advanced Audio Codec Low Complexity
    Codec ID : A_AAC-2
    Duration : 2 h 8 min
    Bit rate : 148 kb/s
    Channel(s) : 2 channels
    Channel layout : L R
    Sampling rate : 48.0 kHz
    Frame rate : 46.875 FPS (1024 SPF)
    Compression mode : Lossy
    Delay relative to video : 9 ms
    Stream size : 136 MiB (4%)
    Title : Japanese 2.0 @ 147 kb/s
    Language : Japanese
    Default : No
    Forced : No

    Text #1
    ID : 5
    Format : ASS
    Codec ID : S_TEXT/ASS
    Codec ID/Info : Advanced Sub Station Alpha
    Duration : 2 h 0 min
    Bit rate : 259 b/s
    Count of elements : 1389
    Compression mode : Lossless
    Stream size : 228 KiB (0%)
    Default : No
    Forced : No

    Text #2
    ID : 6
    Format : ASS
    Codec ID : S_TEXT/ASS
    Codec ID/Info : Advanced Sub Station Alpha
    Duration : 2 h 3 min
    Bit rate : 352 b/s
    Count of elements : 2800
    Compression mode : Lossless
    Stream size : 318 KiB (0%)
    Language : English
    Default : Yes
    Forced : No

    Menu
    00:00:00.000 : en:Movie
    02:07:04.116 : en:Credits



    https://www.cornfile.com/jmiw0mk3jwgy fix

  2. #2
    Senior Member
    สมัครเมื่อ
    Jun 2014
    โพสต์
    5,311
    Thanks
    0
    Thanked 0 Times in 0 Posts
    ขอบคุณครับ

  3. #3
    Member
    สมัครเมื่อ
    Nov 2014
    โพสต์
    69
    Thanks
    4
    Thanked 0 Times in 0 Posts
    ช่วยรีอัพได้มั้ยครับ

    เพิ่ม filecondo ก็ได้
    แก้ไขครั้งล่าสุดโดย soneed : 07-21-2022 เมื่อ 10:41 AM

  4. #4
    Administrators รูปส่วนตัว Duckload.us
    สมัครเมื่อ
    Dec 2010
    โพสต์
    137,397
    Thanks
    7
    Thanked 143,211 Times in 62,344 Posts
    Yu-Gi-Oh!: The Dark Side of Dimensions (2016)

  5. #5
    Member
    สมัครเมื่อ
    Nov 2014
    โพสต์
    69
    Thanks
    4
    Thanked 0 Times in 0 Posts
    ขอบคุณมากครับ

+ ตอบกลับกระทู้

ข้อมูลกระทู้

Users Browsing this Thread

ในขณะนี้มี 1 ท่านดูกระทู้อยู่. (0 สมาชิกและ 1 ผู้เยี่ยมชม)

     

กฎการโพสต์ข้อความ

  • ท่าน ไม่สามารถ ตั้งกระทู้ใหม่ได้
  • ท่าน ไม่สามารถ ตอบกระทู้ได้
  • ท่าน ไม่สามารถ แนบไฟล์ได้
  • ท่าน ไม่สามารถ แก้ไขข้อความโพสต์ได้
  • BB code สถานะ เปิด
  • Smilies สถานะ เปิด
  • [IMG] สถานะ เปิด
  • HTML สถานะ ปิด