+ ตอบกลับกระทู้
สรุปผลการค้นหา 1 ถึง 3 จากทั้งหมด 3
  1. #1
    Administrators รูปส่วนตัว Duckload.us
    สมัครเมื่อ
    Dec 2010
    โพสต์
    116,849
    Thanks
    7
    Thanked 123,153 Times in 55,207 Posts

    Lightbulb [เกาหลี]-Leverage ปฏิบัติการลับ ฉบับโรบินฮูด Complete [ Audio = Thai & Kor ] [ Subtitles = THAI srt ]-WEB-DL.H.264.1080p. [Hi-def rip from Master]-[พากย์ไทย บรรยายไทย]



    Leverage – ซีรีย์เกาหลี

    ชื่อเรื่อง: 레 버 리 지 / Rebeoriji / Leverage / ปฏิบัติการลับ ฉบับโรบินฮูด
    ประเภท: ดราม่า, อาชญากรรม, คอมมาดี้
    จำนวนตอน: 16 ตอน
    โปรดิวเซอร์:
    ผู้กำกับ: Nam Ki Hoon
    เขียนบทโดย: Min Ji Hyung (민 지 형 )
    สถานีที่ออกอากาศ: TV Chosun
    ฉายเมื่อ: 13 ตุลาคม 2019 –
    เวลาออกอากาศที่เกาหลี: วันเสาร์และอาทิตย์ เวลา 22:50 น. ตามเวลาเกาหลี
    ออกอากาศที่ไทย : –

    เรื่องย่อซีรีย์ Leverage:




    นักแสดงซีรีย์ Leverage:
    Lee Dong Gun รับบทเป็น Lee Tae Joon
    Jun Hye Bin รับบทเป็น Hwang Soo Kyung
    Kim Sae Ron รับบทเป็น Ko Na Byul
    Kim Kwon รับบทเป็น Roy Ryu
    Yeo Hoe Hyun รับบทเป็น Jung Eui Sung

    Code:
    Video
    ID                          : 1
    Format                      : AVC
    Format/Info                 : Advanced Video Codec
    Format profile              : [email protected]
    Format settings             : CABAC / 4 Ref Frames
    Format settings, CABAC      : Yes
    Format settings, Reference  : 4 frames
    Codec ID                    : V_MPEG4/ISO/AVC
    Duration                    : 54 min 31 s
    Bit rate mode               : Variable
    Bit rate                    : 1 640 kb/s
    Maximum bit rate            : 4 500 kb/s
    Width                       : 1 920 pixels
    Height                      : 1 080 pixels
    Display aspect ratio        : 16:9
    Frame rate mode             : Constant
    Frame rate                  : 29.970 (30000/1001) FPS
    Original frame rate         : 29.970 (29970/1000) FPS
    Color space                 : YUV
    Chroma subsampling          : 4:2:0
    Bit depth                   : 8 bits
    Scan type                   : Progressive
    Bits/(Pixel*Frame)          : 0.026
    Stream size                 : 640 MiB (85%)
    Writing library             : VOLO1.4.1
    Default                     : Yes
    Forced                      : No
    
    Audio #1
    ID                          : 2
    Format                      : AAC LC
    Format/Info                 : Advanced Audio Codec Low Complexity
    Codec ID                    : A_AAC-2
    Duration                    : 54 min 32 s
    Bit rate                    : 192 kb/s
    Channel(s)                  : 2 channels
    Channel layout              : L R
    Sampling rate               : 48.0 kHz
    Frame rate                  : 46.875 FPS (1024 SPF)
    Compression mode            : Lossy
    Delay relative to video     : -42 ms
    Stream size                 : 74.9 MiB (10%)
    Language                    : Thai
    Default                     : Yes
    Forced                      : No
    
    Audio #2
    ID                          : 3
    Format                      : AAC LC
    Format/Info                 : Advanced Audio Codec Low Complexity
    Codec ID                    : A_AAC-2
    Duration                    : 54 min 32 s
    Bit rate                    : 96.0 kb/s
    Channel(s)                  : 2 channels
    Channel layout              : L R
    Sampling rate               : 48.0 kHz
    Frame rate                  : 46.875 FPS (1024 SPF)
    Compression mode            : Lossy
    Delay relative to video     : -42 ms
    Stream size                 : 37.4 MiB (5%)
    Language                    : Korean
    Default                     : No
    Forced                      : No
    
    Text
    ID                          : 4
    Format                      : UTF-8
    Codec ID                    : S_TEXT/UTF8
    Codec ID/Info               : UTF-8 Plain Text
    Duration                    : 54 min 20 s
    Bit rate                    : 151 b/s
    Count of elements           : 846
    Stream size                 : 60.2 KiB (0%)
    Title                       : Thai SRT
    Language                    : Thai
    Default                     : No
    Forced                      : No


    1
    http://www.filecondo.com/dl.php?f=966dad1Jt3OP
    2
    http://www.filecondo.com/dl.php?f=l6be4b1Jt3PN
    3
    http://www.filecondo.com/dl.php?f=o24e931Jt3QL
    4
    http://www.filecondo.com/dl.php?f=l73e361Jt3RK
    5
    http://www.filecondo.com/dl.php?f=mffc9e1Jt3SH
    6
    http://www.filecondo.com/dl.php?f=Ce01fc1Jt3TE
    7
    http://www.filecondo.com/dl.php?f=l2eecd1Jt3UD
    8
    http://www.filecondo.com/dl.php?f=vef2cf1Jt3VA
    9
    http://www.filecondo.com/dl.php?f=o4b74a1Jt3Wy
    10
    http://www.filecondo.com/dl.php?f=Q3483e1Jt3Xw
    11
    http://www.filecondo.com/dl.php?f=W7a85d1Jt3Yt
    12
    http://www.filecondo.com/dl.php?f=E513d11Jt3Zs
    13
    http://www.filecondo.com/dl.php?f=r46e731Jtmjt
    14
    http://www.filecondo.com/dl.php?f=A9ea511Jt41p
    15
    http://www.filecondo.com/dl.php?f=Sb9a9a1Jt42m
    16
    http://www.filecondo.com/dl.php?f=x1a6211Jt43k

  2. The Following 2 Users Say Thank You to Duckload.us For This Useful Post:

    JOMMY_2 (04-29-2020), kappa (05-22-2020)

  3. #2
    Senior Member
    สมัครเมื่อ
    Jul 2013
    โพสต์
    863
    Thanks
    0
    Thanked 0 Times in 0 Posts
    ขอบคุณครับผม

  4. #3
    Senior Member
    สมัครเมื่อ
    May 2012
    โพสต์
    321
    Thanks
    0
    Thanked 0 Times in 0 Posts
    ขอบคุณคร๊าบ

+ ตอบกลับกระทู้

ข้อมูลกระทู้

Users Browsing this Thread

ในขณะนี้มี 1 ท่านดูกระทู้อยู่. (0 สมาชิกและ 1 ผู้เยี่ยมชม)

     

กฎการโพสต์ข้อความ

  • ท่าน ไม่สามารถ ตั้งกระทู้ใหม่ได้
  • ท่าน ไม่สามารถ ตอบกระทู้ได้
  • ท่าน ไม่สามารถ แนบไฟล์ได้
  • ท่าน ไม่สามารถ แก้ไขข้อความโพสต์ได้
  • BB code สถานะ เปิด
  • Smilies สถานะ เปิด
  • [IMG] สถานะ เปิด
  • HTML สถานะ ปิด