+ ตอบกลับกระทู้
สรุปผลการค้นหา 1 ถึง 2 จากทั้งหมด 2
  1. #1
    Administrators รูปส่วนตัว Duckload.us
    สมัครเมื่อ
    Dec 2010
    โพสต์
    116,973
    Thanks
    7
    Thanked 123,251 Times in 55,238 Posts

    Lightbulb [เกาหลี]-[Meow, the Secret Boy]-[L (Infinite), Shin Ye Eun, Seo Ji Hoon, Yoon Ye Joo, Kang Hoon Ep.1-24/End]-HDTV.H.264.1080p. [From HD-TV]-[Soundtrack บรรยายไทย]




    ซืรี่ย์เกาหลี: Meow, the Secret Boy, Welcome
    ประเภท: Fantasy, Romance, Comedy
    นักแสดง: L (Infinite), Shin Ye Eun, Seo Ji Hoon, Yoon Ye Joo, Kang Hoon
    จำนวนตอน: 16
    เขียนบทโดย: Go A-Ra (webcomic), Joo Hwa Mi
    ผู้กำกับ: Ji Byung Hyun
    ออกอากาศทางสถานีโทรทัศน์: KBS2
    เริ่มออกอากาศ: 25 มี.ค. 2020 - 30 เม.ย. 2020
    เวลาออกอากาศ: ทุกวันพุธ - วันพฤหัส 22:00 น. เวลาเกาหลี 20:00 น. เวลาไทย (2 episodes back-to-back)
    นักแสดง:
    L as Hong Jo
    Shin Ye Eun as Kim Sol Ah
    Seo Ji Hoon as Lee Jae Sun
    Yoon Ye Joo as Eun Ji Eun
    Kang Hoon as Ko Doo Shik
    Kim Sol Ah's family
    Ahn Nae Sang as Kim Soo Pyung (Sol Ah's father)
    Jo Ryun as Bang Sil (Sol Ah's step mother)
    Ko Doo Shik's family
    Kim Yeo Jin as Sung Hyun Ja
    Jun Bae Soo as Ko Min Jong
    Nalsaem Design
    Jun Ik Ryung as Park Shin Ja
    Yang Dae Hyuk as Cha Sang Kwon
    Kim Ye Seul as Lee Hye Yun
    Lee Yoo Jin as Choi Da Som
    Supporting Cast
    Choi Bae Young as Lee Roo Bi
    Sung Min Jae as Dae Sung
    Choi Min Geum as Bungeo-ppang grandmother
    Yun Je Hyung as Bang Kook Bong
    Sysopsis: ซีรีส์เรื่องนี้สร้างขึ้นจากการ์ตูนออนไลน์เรื่อง “โกอารา” ซึ่งถูกเผยแพร่เมื่อปี 2009 ถึง 2010 ผ่านทางเว็บไซต์
    คิมซลอา (รับบทโดย ชินเยอึน) เป็นกราฟฟิกดีไซน์เนอร์ผู้ร่าเริงเข้าสังคมเก่งที่อย ากจะเป็นศิลปินการ์ตูนออนไลน์ วันหนึ่งเธอได้พาแมวตัวหนึ่งกลับมาที่บ้านซึ่งเธอไม่ รู้มาก่อนเลยว่าแมวตัวนี้มีความสามารถพิเศษที่สามารถ แปลงร่างเป็นชายหนุ่มได้ มาติดตามชมกันได้ในซีรีย์เกาหลี Meow, the Secret Boy
    Credit: franky

    General
    Unique ID : 58298898312230012024312792186227603471 (0x2BDBF59B22B517B56F2583A6137D380F)
    Complete name : K:Meow, the Secret BoyWelcome.E09.1080p.WEB-DL.Viu.AAC.H.264.mkv
    Format : Matroska
    Format version : Version 4
    File size : 608 MiB
    Duration : 33 min 11 s
    Overall bit rate mode : Variable
    Overall bit rate : 2 559 kb/s
    Encoded date : UTC 2020-05-01 16:13:27
    Writing application : mkvmerge v19.0.0 ('Brave Captain') 64-bit
    Writing library : libebml v1.3.5 + libmatroska v1.4.8

    Video
    ID : 1
    Format : AVC
    Format/Info : Advanced Video Codec
    Format profile : [email protected]
    Format settings : CABAC / 4 Ref Frames
    Format settings, CABAC : Yes
    Format settings, Reference fra : 4 frames
    Codec ID : V_MPEG4/ISO/AVC
    Duration : 33 min 11 s
    Bit rate mode : Variable
    Bit rate : 2 455 kb/s
    Maximum bit rate : 4 500 kb/s
    Width : 1 920 pixels
    Height : 1 080 pixels
    Display aspect ratio : 16:9
    Frame rate mode : Constant
    Frame rate : 29.970 (30000/1001) FPS
    Original frame rate : 29.970 (29970/1000) FPS
    Color space : YUV
    Chroma subsampling : 4:2:0
    Bit depth : 8 bits
    Scan type : Progressive
    Bits/(Pixel*Frame) : 0.040
    Stream size : 583 MiB (96%)
    Writing library : VOLO1.4.1
    Default : Yes
    Forced : No

    Audio
    ID : 2
    Format : AAC LC
    Format/Info : Advanced Audio Codec Low Complexity
    Codec ID : A_AAC-2
    Duration : 33 min 11 s
    Bit rate : 96.0 kb/s
    Channel(s) : 2 channels
    Channel layout : L R
    Sampling rate : 48.0 kHz
    Frame rate : 46.875 FPS (1024 SPF)
    Compression mode : Lossy
    Delay relative to video : -43 ms
    Stream size : 22.8 MiB (4%)
    Language : Korean
    Default : Yes
    Forced : No

    Text #1
    ID : 3
    Format : UTF-8
    Codec ID : S_TEXT/UTF8
    Codec ID/Info : UTF-8 Plain Text
    Duration : 33 min 4 s
    Bit rate : 81 b/s
    Count of elements : 356
    Stream size : 19.7 KiB (0%)
    Language : Thai
    Default : Yes
    Forced : No

    Text #2
    ID : 4
    Format : PGS
    Muxing mode : zlib
    Codec ID : S_HDMV/PGS
    Codec ID/Info : Picture based subtitle format used on BDs/HD-DVDs
    Duration : 33 min 4 s
    Bit rate : 12.8 kb/s
    Count of elements : 712
    Stream size : 3.04 MiB (0%)
    Language : Thai
    Default : No
    Forced : No



    http://www.filecondo.com/dl.php?f=692fe51JyGZG


    Meow, the Secret Boy - EP24.mkv
    http://www.filecondo.com/dl.php?f=pa02b11JZj4M

  2. The Following User Says Thank You to Duckload.us For This Useful Post:

    kappa (07-26-2020)

  3. #2
    Member
    สมัครเมื่อ
    Dec 2011
    โพสต์
    30
    Thanks
    1
    Thanked 0 Times in 0 Posts
    โหลดไม่ได้ครับ

+ ตอบกลับกระทู้

ข้อมูลกระทู้

Users Browsing this Thread

ในขณะนี้มี 1 ท่านดูกระทู้อยู่. (0 สมาชิกและ 1 ผู้เยี่ยมชม)

     

กฎการโพสต์ข้อความ

  • ท่าน ไม่สามารถ ตั้งกระทู้ใหม่ได้
  • ท่าน ไม่สามารถ ตอบกระทู้ได้
  • ท่าน ไม่สามารถ แนบไฟล์ได้
  • ท่าน ไม่สามารถ แก้ไขข้อความโพสต์ได้
  • BB code สถานะ เปิด
  • Smilies สถานะ เปิด
  • [IMG] สถานะ เปิด
  • HTML สถานะ ปิด