+ ตอบกลับกระทู้
สรุปผลการค้นหา 1 ถึง 3 จากทั้งหมด 3
  1. #1
    Administrators รูปส่วนตัว Duckload.us
    สมัครเมื่อ
    Dec 2010
    โพสต์
    115,767
    Thanks
    7
    Thanked 122,115 Times in 54,817 Posts

    Lightbulb [จีน]-[* ไฟล์ไว้เก็บสะสม *] Three Kingdoms (2010) : The Complete Series : สามก๊ก 95 ตอนจบ [เสียงไทย + เสียงจีน] [บรรยายไทย + อังกฤษ] [ซับ PGS คมชัด] -Blu-ray.H.264.1080p. [Hi-def rip from Master]-[พากย์ไทย บรรยายไทย]




    เสียงไทยต้นฉบับจากคุณ kikuser

    บรรยายไทยโดย Pondloso

    สามก๊ก ได้รับการสร้างเป็นละครโทรทัศน์อีกครั้ง โดยเริ่มถ่ายทำตั้งแต่ปี พ.ศ. 2551 และออกฉายทางโทรทัศน์ครั้งแรกทางช่องเจียงซู ช่องอันฮุย ช่องฉงชิ่ง และช่องเทียนจิน ในวันที่ 2 พฤษภาคม พ.ศ. 2553 ด้วยทุนสร้างกว่า 180 ล้านหยวน (900 ล้านบาท) โดยละครโทรทัศน์ชุดนี้มีทั้งหมด 95 ตอน ตอนละ 40 นาที กำกับโดย เกา ซีซี เนื้อหาของสามก๊กชุดนี้ขาดเรื่องราวตอนต้นไป โดยเริ่มเปิดฉากตั้งแต่ตั๋งโต๊ะเข้าเมืองหลวงสถาปนาห องจูเหียบแล้ว จบลงตรงสุมาอี้ตาย เนื้อหาจึงไม่ครบสมบูรณ์เท่าสามก๊กฉบับละครโทรทัศน์ พ.ศ. 2537 ของช่องซีซีทีวี



    Format : Matroska
    Format version : Version 4
    File size : 1.79 GiB
    Duration : 43 min 25 s
    Overall bit rate : 5 899 kb/s
    Movie name : Three.Kingdoms.2010.S01E01.1080p.BluRay.AC3.x264_S kiesIT
    Encoded date : UTC 2020-05-13 15:38:29
    Writing application : mkvmerge v46.0.0 ('No Deeper Escape') 64-bit
    Writing library : libebml v1.3.10 + libmatroska v1.5.2

    Video
    ID : 1
    Format : AVC
    Format/Info : Advanced Video Codec
    Format profile : [email protected]
    Format settings : CABAC / 5 Ref Frames
    Format settings, CABAC : Yes
    Format settings, Reference frames : 5 frames
    Codec ID : V_MPEG4/ISO/AVC
    Duration : 43 min 25 s
    Bit rate : 5 000 kb/s
    Width : 1 920 pixels
    Height : 1 080 pixels
    Display aspect ratio : 16:9
    Frame rate mode : Variable
    Frame rate : 23.976 FPS
    Color space : YUV
    Chroma subsampling : 4:2:0
    Bit depth : 8 bits
    Scan type : Progressive
    Bits/(Pixel*Frame) : 0.101
    Stream size : 1.51 GiB (84%)
    Title : Three.Kingdoms.2010.S01E01.1080p.BluRay.AC3.x264_S kiesIT
    Writing library : x264 core 157
    Encoding settings : cabac=1 / ref=5 / deblock=1:0:0 / analyse=0x3:0x113 / me=hex / subme=8 / psy=1 / psy_rd=1.00:0.00 / mixed_ref=1 / me_range=16 / chroma_me=1 / trellis=2 / 8x8dct=1 / cqm=0 / deadzone=21,11 / fast_pskip=1 / chroma_qp_offset=-2 / threads=9 / lookahead_threads=1 / sliced_threads=0 / nr=0 / decimate=1 / interlaced=0 / bluray_compat=0 / constrained_intra=0 / bframes=3 / b_pyramid=2 / b_adapt=1 / b_bias=0 / direct=3 / weightb=1 / open_gop=0 / weightp=2 / keyint=250 / keyint_min=23 / scenecut=40 / intra_refresh=0 / rc_lookahead=40 / rc=2pass / mbtree=1 / bitrate=5000 / ratetol=1.0 / qcomp=0.60 / qpmin=0 / qpmax=69 / qpstep=4 / cplxblur=20.0 / qblur=0.5 / vbv_maxrate=7500 / vbv_bufsize=10000 / nal_hrd=none / filler=0 / ip_ratio=1.40 / aq=1:1.00
    Language : Chinese
    Default : Yes
    Forced : No

    Audio #1
    ID : 2
    Format : AC-3
    Format/Info : Audio Coding 3
    Commercial name : Dolby Digital
    Codec ID : A_AC3
    Duration : 43 min 25 s
    Bit rate mode : Constant
    Bit rate : 320 kb/s
    Channel(s) : 2 channels
    Channel layout : L R
    Sampling rate : 48.0 kHz
    Frame rate : 31.250 FPS (1536 SPF)
    Compression mode : Lossy
    Stream size : 99.4 MiB (5%)
    Title : Thai AC3 2.0
    Language : Thai
    Service kind : Complete Main
    Default : Yes
    Forced : No

    Audio #2
    ID : 3
    Format : AC-3
    Format/Info : Audio Coding 3
    Commercial name : Dolby Digital
    Codec ID : A_AC3
    Duration : 43 min 25 s
    Bit rate mode : Constant
    Bit rate : 448 kb/s
    Channel(s) : 6 channels
    Channel layout : L R C LFE Ls Rs
    Sampling rate : 48.0 kHz
    Frame rate : 31.250 FPS (1536 SPF)
    Compression mode : Lossy
    Stream size : 139 MiB (8%)
    Title : Chinese AC3 5.1
    Language : Chinese
    Service kind : Complete Main
    Default : No
    Forced : No

    Text #1
    ID : 4
    Format : UTF-8
    Codec ID : S_TEXT/UTF8
    Codec ID/Info : UTF-8 Plain Text
    Duration : 38 min 22 s
    Bit rate : 149 b/s
    Count of elements : 613
    Stream size : 42.2 KiB (0%)
    Title : Thai SRT
    Language : Thai
    Default : Yes
    Forced : No

    Text #2
    ID : 5
    Format : UTF-8
    Codec ID : S_TEXT/UTF8
    Codec ID/Info : UTF-8 Plain Text
    Duration : 38 min 22 s
    Bit rate : 67 b/s
    Count of elements : 515
    Stream size : 18.9 KiB (0%)
    Title : English SRT
    Language : English
    Default : No
    Forced : No

    Text #3
    ID : 6
    Format : PGS
    Muxing mode : zlib
    Codec ID : S_HDMV/PGS
    Codec ID/Info : Picture based subtitle format used on BDs/HD-DVDs
    Duration : 38 min 22 s
    Bit rate : 46.2 kb/s
    Count of elements : 1224
    Stream size : 12.7 MiB (1%)
    Title : Thai PGS [Angsana]
    Language : Thai
    Default : No
    Forced : No

    Text #4
    ID : 7
    Format : PGS
    Muxing mode : zlib
    Codec ID : S_HDMV/PGS
    Codec ID/Info : Picture based subtitle format used on BDs/HD-DVDs
    Duration : 38 min 22 s
    Bit rate : 46.2 kb/s
    Count of elements : 1224
    Stream size : 12.7 MiB (1%)
    Title : Thai PGS [Angsana Yellow]
    Language : Thai
    Default : No
    Forced : No

    Text #5
    ID : 8
    Format : PGS
    Muxing mode : zlib
    Codec ID : S_HDMV/PGS
    Codec ID/Info : Picture based subtitle format used on BDs/HD-DVDs
    Duration : 38 min 22 s
    Bit rate : 46.6 kb/s
    Count of elements : 1224
    Stream size : 12.8 MiB (1%)
    Title : Thai PGS [Saranun]
    Language : Thai
    Default : No
    Forced : No

    Text #6
    ID : 9
    Format : PGS
    Muxing mode : zlib
    Codec ID : S_HDMV/PGS
    Codec ID/Info : Picture based subtitle format used on BDs/HD-DVDs
    Duration : 38 min 22 s
    Bit rate : 46.6 kb/s
    Count of elements : 1224
    Stream size : 12.8 MiB (1%)
    Title : Thai PGS [Saranun Yellow]
    Language : Thai
    Default : No
    Forced : No

    Text #7
    ID : 10
    Format : PGS
    Muxing mode : zlib
    Codec ID : S_HDMV/PGS
    Codec ID/Info : Picture based subtitle format used on BDs/HD-DVDs
    Duration : 38 min 22 s
    Bit rate : 45.5 kb/s
    Count of elements : 1224
    Stream size : 12.5 MiB (1%)
    Title : Thai PGS [Niramit]
    Language : Thai
    Default : No
    Forced : No

    Text #8
    ID : 11
    Format : PGS
    Muxing mode : zlib
    Codec ID : S_HDMV/PGS
    Codec ID/Info : Picture based subtitle format used on BDs/HD-DVDs
    Duration : 38 min 22 s
    Bit rate : 45.5 kb/s
    Count of elements : 1224
    Stream size : 12.5 MiB (1%)
    Title : Thai PGS [Niramit Yellow]
    Language : Thai
    Default : No
    Forced : No

    Text #9
    ID : 12
    Format : PGS
    Muxing mode : zlib
    Codec ID : S_HDMV/PGS
    Codec ID/Info : Picture based subtitle format used on BDs/HD-DVDs
    Duration : 38 min 23 s
    Bit rate : 49.8 kb/s
    Count of elements : 1030
    Stream size : 13.7 MiB (1%)
    Title : English PGS
    Language : English
    Default : No
    Forced : No















    1
    http://www.filecondo.com/dl.php?f=Gfde071JB3wv
    2
    http://www.filecondo.com/dl.php?f=k4fe201JB3xs
    3
    http://www.filecondo.com/dl.php?f=3f24e81JB3yq
    4
    http://www.filecondo.com/dl.php?f=U84d4a1JB3HU
    5
    http://www.filecondo.com/dl.php?f=191a5a1JB3Jb
    6
    http://www.filecondo.com/dl.php?f=Y2f3ad1JB3K2
    7
    http://www.filecondo.com/dl.php?f=G7f73f1JB3L0
    8
    http://www.filecondo.com/dl.php?f=f483ab1JB3LZ
    9
    http://www.filecondo.com/dl.php?f=1e51461JBpiG
    10
    http://www.filecondo.com/dl.php?f=1e36871JB3N1
    11
    http://www.filecondo.com/dl.php?f=Rb5cfc1JB3O0
    12
    http://www.filecondo.com/dl.php?f=Wbab941JB3OY
    13
    http://www.filecondo.com/dl.php?f=nd4e2b1JB3PQ
    14
    http://www.filecondo.com/dl.php?f=w1e7551JBpkB
    15
    http://www.filecondo.com/dl.php?f=a24e4b1JB3QO
    16
    http://www.filecondo.com/dl.php?f=V190f21JB3RR
    17
    http://www.filecondo.com/dl.php?f=d4f1d91JB3SQ
    18
    http://www.filecondo.com/dl.php?f=X5f3881JB3TO
    19
    http://www.filecondo.com/dl.php?f=f96d1f1JB3UJ
    20
    http://www.filecondo.com/dl.php?f=R34e9f1JBplz
    21
    http://www.filecondo.com/dl.php?f=Zcd4c21JB3Yy
    22
    http://www.filecondo.com/dl.php?f=tb96ce1JB3Zy
    23
    http://www.filecondo.com/dl.php?f=l9682e1JB40u
    24
    http://www.filecondo.com/dl.php?f=Z9c3801JB41s
    25
    http://www.filecondo.com/dl.php?f=a429c01JBpmr
    26
    http://www.filecondo.com/dl.php?f=Bba9231JB42t
    27
    http://www.filecondo.com/dl.php?f=ifdd181JB43p
    28
    http://www.filecondo.com/dl.php?f=u0a7e61JB44n
    29
    http://www.filecondo.com/dl.php?f=b27d531JBpnw
    30
    http://www.filecondo.com/dl.php?f=p29ea21JB45k
    31
    http://www.filecondo.com/dl.php?f=Ke7c941JB46i
    32
    http://www.filecondo.com/dl.php?f=cf5cdf1JB47h
    33
    http://www.filecondo.com/dl.php?f=D3ebdc1JB48f
    34
    http://www.filecondo.com/dl.php?f=c103391JB49c
    35
    http://www.filecondo.com/dl.php?f=40cfc71JBpoq
    36
    http://www.filecondo.com/dl.php?f=7b77d91JB4ab
    37
    http://www.filecondo.com/dl.php?f=Yab5f31JB4b9
    38
    http://www.filecondo.com/dl.php?f=sb2e511JB4c7
    39
    http://www.filecondo.com/dl.php?f=m7d0c11JB4d5
    40
    http://www.filecondo.com/dl.php?f=L520381JBppt
    41
    http://www.filecondo.com/dl.php?f=A96c821JB4e3
    42
    http://www.filecondo.com/dl.php?f=ob23d91JB4f1
    43
    http://www.filecondo.com/dl.php?f=V85ef11JB4qD
    44
    http://www.filecondo.com/dl.php?f=z0aa5c1JB4rE
    45
    http://www.filecondo.com/dl.php?f=F316291JBpqi
    46
    http://www.filecondo.com/dl.php?f=41cbe41JB4sD
    47
    http://www.filecondo.com/dl.php?f=U636341JB4ty
    48
    http://www.filecondo.com/dl.php?f=vc72c31JB4uu
    49
    http://www.filecondo.com/dl.php?f=ve598e1JB4vv
    50
    http://www.filecondo.com/dl.php?f=l58f801JBpro
    51
    http://www.filecondo.com/dl.php?f=h5a2d21JB4ww
    52
    http://www.filecondo.com/dl.php?f=V3bbc21JB4xr
    53
    http://www.filecondo.com/dl.php?f=sa15eb1JB4yn
    54
    http://www.filecondo.com/dl.php?f=Jaf7a61JB4zq
    55
    http://www.filecondo.com/dl.php?f=y957881JBpsk
    56
    http://www.filecondo.com/dl.php?f=w7b9291JB4Ap
    57
    http://www.filecondo.com/dl.php?f=6c40fd1JB4Bj
    58
    http://www.filecondo.com/dl.php?f=bc9d601JB4Ck
    59
    http://www.filecondo.com/dl.php?f=ldd0c71JB4Dc
    60
    http://www.filecondo.com/dl.php?f=sd6d071JBptj
    61
    http://www.filecondo.com/dl.php?f=G599461JB4Ef
    62
    http://www.filecondo.com/dl.php?f=V296371JB4F9
    63
    http://www.filecondo.com/dl.php?f=J414061JB4G6
    64
    http://www.filecondo.com/dl.php?f=2c18bc1JB4H8
    65
    http://www.filecondo.com/dl.php?f=a4b9011JBpub
    66
    http://www.filecondo.com/dl.php?f=422e981JB4I7
    67
    http://www.filecondo.com/dl.php?f=Mf2c561JB4J1
    68
    http://www.filecondo.com/dl.php?f=P3ec911JB4K0
    69
    http://www.filecondo.com/dl.php?f=db88011JB4KX
    70
    http://www.filecondo.com/dl.php?f=688a801JBpvb
    71
    http://www.filecondo.com/dl.php?f=re5a211JB4LV
    72
    http://www.filecondo.com/dl.php?f=4d5cc81JB4MU
    73
    http://www.filecondo.com/dl.php?f=aa5c6a1JB4NR
    74
    http://www.filecondo.com/dl.php?f=Ldbc7e1JB4OP
    75
    http://www.filecondo.com/dl.php?f=V7bfa61JBpwc
    76
    http://www.filecondo.com/dl.php?f=Y140481JB4PS
    77
    http://www.filecondo.com/dl.php?f=Ee1d931JB4QL
    78
    http://www.filecondo.com/dl.php?f=c355091JB4RJ
    79
    http://www.filecondo.com/dl.php?f=17b3ec1JB4SJ
    80
    http://www.filecondo.com/dl.php?f=Rc51ee1JBpx6
    81
    http://www.filecondo.com/dl.php?f=Ue0acb1JB4TJ
    82
    http://www.filecondo.com/dl.php?f=B74eff1JBpy6
    83
    http://www.filecondo.com/dl.php?f=p5791a1JB4UI
    84
    http://www.filecondo.com/dl.php?f=774dc31JB4VC
    85
    http://www.filecondo.com/dl.php?f=1087c01JB4WC
    86
    http://www.filecondo.com/dl.php?f=B506061JB4XB
    87
    http://www.filecondo.com/dl.php?f=Gd558a1JBpz6
    88
    http://www.filecondo.com/dl.php?f=Wa57c01JB4Yw
    89
    http://www.filecondo.com/dl.php?f=Ce4cb11JB4Zt
    90
    http://www.filecondo.com/dl.php?f=1b64c31JB50t fix
    91
    http://www.filecondo.com/dl.php?f=H225961JB51t
    92
    http://www.filecondo.com/dl.php?f=L9f27e1JB52o
    93
    http://www.filecondo.com/dl.php?f=n352121JBpA0
    94
    http://www.filecondo.com/dl.php?f=n886581JB53m
    95
    http://www.filecondo.com/dl.php?f=yb3de01JB54k

  2. #2
    Junior Member
    สมัครเมื่อ
    Apr 2014
    โพสต์
    17
    Thanks
    2
    Thanked 0 Times in 0 Posts
    Ep90 กับ ep91 ซ้ำกันครับ

  3. #3
    Administrators รูปส่วนตัว Duckload.us
    สมัครเมื่อ
    Dec 2010
    โพสต์
    115,767
    Thanks
    7
    Thanked 122,115 Times in 54,817 Posts
    อ้างอิง โพสต์ต้นฉบับโดยคุณ gatezzx ดูโพสต์
    Ep90 กับ ep91 ซ้ำกันครับ
    เรียนแจ้ง แก้ไขแล้วครับ

+ ตอบกลับกระทู้

ข้อมูลกระทู้

Users Browsing this Thread

ในขณะนี้มี 1 ท่านดูกระทู้อยู่. (0 สมาชิกและ 1 ผู้เยี่ยมชม)

     

กฎการโพสต์ข้อความ

  • ท่าน ไม่สามารถ ตั้งกระทู้ใหม่ได้
  • ท่าน ไม่สามารถ ตอบกระทู้ได้
  • ท่าน ไม่สามารถ แนบไฟล์ได้
  • ท่าน ไม่สามารถ แก้ไขข้อความโพสต์ได้
  • BB code สถานะ เปิด
  • Smilies สถานะ เปิด
  • [IMG] สถานะ เปิด
  • HTML สถานะ ปิด