+ ตอบกลับกระทู้
สรุปผลการค้นหา 1 ถึง 5 จากทั้งหมด 5
  1. #1
    Administrators รูปส่วนตัว Duckload.us
    สมัครเมื่อ
    Dec 2010
    โพสต์
    114,385
    Thanks
    7
    Thanked 120,589 Times in 54,259 Posts

    Question [ใหม่][ Dark Waters (2019) พลิกน้ำเน่าคดีฉาวโลก ] 1080p [ พากย์ไทย ] [ Master ]



    Dark Waters_(2019)
    อีกหนึ่งผลงานที่คอหนังสายรางวัลต้องปักหมุดเตรียมรอ ชมกันไว้ได้เลยสำหรับ Dark Waters ภาพยนตร์ดราม่าเข้มข้นที่สร้างมาจากเรื่องจริง
    ผ่านการนำแสดงโดยนักแสดงคุณภาพ มาร์ก รัฟฟาโล ผู้ได้รับการเสนอชื่อเข้าชิง 3 รางวัลออสการ์
    กับการแปลงโฉมพลิกคาแร็กเตอร์มารับบทเป็น โรเบิร์ต บิลอตต์ ทนายความดีเดือดผู้ยกความเสี่ยงต่อทั้งชีวิตตนเอง
    และครอบครัวเพื่อเดินหน้ากัดไม่ปล่อยต่อคดีความของบร ิษัทยักษ์ใหญ่ ดูปองท์ ผู้ผลิตสารเคมีในรัฐเวสต์เวอร์จิเนียที่ซ่อนความลับด ำมืดอันเกี่ยวข้องกับการเสียชีวิต
    ของผู้บริสุทธิ์ภายในเมืองหลายคน เนื่องด้วยสาเหตุการรั่วไหลของสารเคมีอันตรายร้ายแรง สู่ย่านที่พักอาศัย!!!

    Format : MPEG-4
    Format profile : Base Media
    Codec ID : isom (isom/iso2/avc1/mp41)
    File size : 3.73 GiB
    Duration : 2 h 7 min
    Overall bit rate mode : Variable
    Overall bit rate : 4 202 kb/s

    Video
    ID : 1
    Format : AVC
    Format/Info : Advanced Video Codec
    Format profile : [email protected]
    Format settings : CABAC / 4 Ref Frames
    Format settings, CABAC : Yes
    Format settings, Reference frames : 4 frames
    Format settings, GOP : M=1, N=76
    Codec ID : avc1
    Codec ID/Info : Advanced Video Coding
    Duration : 2 h 7 min
    Duration_FirstFrame : 46 ms
    Bit rate mode : Variable
    Bit rate : 3 990 kb/s
    Maximum bit rate : 12.0 Mb/s
    Width : 1 920 pixels
    Height : 804 pixels
    Display aspect ratio : 2.40:1
    Frame rate mode : Constant
    Frame rate : 25.000 FPS
    Color space : YUV
    Chroma subsampling : 4:2:0
    Bit depth : 8 bits
    Scan type : Progressive
    Bits/(Pixel*Frame) : 0.103
    Stream size : 3.54 GiB (95%)
    Tagged date : UTC 2020-05-20 08:16:58
    Codec configuration box : avcC

    Audio
    ID : 2
    Format : AAC LC
    Format/Info : Advanced Audio Codec Low Complexity
    Codec ID : mp4a-40-2
    Duration : 2 h 7 min
    Bit rate mode : Constant
    Bit rate : 210 kb/s
    Channel(s) : 2 channels
    Channel layout : L R
    Sampling rate : 44.1 kHz
    Frame rate : 43.066 FPS (1024 SPF)
    Compression mode : Lossy
    Stream size : 191 MiB (5%)
    Default : Yes
    Alternate group : 1
    Tagged date : UTC 2020-05-20 08:16:58






    Download: cornfile
    http://cornfile.com/zv5h7kfbflcj
    Download: mekafile
    http://www.mekafile.com/dl.php?f=u21597c9dC7T

  2. The Following 4 Users Say Thank You to Duckload.us For This Useful Post:

    beerdum (05-23-2020), noi54 (05-21-2020), sawara (05-21-2020), Tatum03 (05-21-2020)

  3. #2
    Senior Member
    สมัครเมื่อ
    Oct 2013
    ที่อยู่
    Thailand
    โพสต์
    1,334
    Thanks
    1,205
    Thanked 0 Times in 0 Posts
    ขอบคุณมาก

  4. #3
    Senior Member
    สมัครเมื่อ
    Dec 2013
    โพสต์
    295
    Thanks
    214
    Thanked 0 Times in 0 Posts
    ขอบคุณครับ

  5. #4
    Senior Member
    สมัครเมื่อ
    Jun 2014
    โพสต์
    3,791
    Thanks
    0
    Thanked 0 Times in 0 Posts
    ขอบคุณครับ

  6. #5
    Senior Member
    สมัครเมื่อ
    Jul 2013
    โพสต์
    550
    Thanks
    0
    Thanked 0 Times in 0 Posts
    ขอบคุณครับผม

+ ตอบกลับกระทู้

ข้อมูลกระทู้

Users Browsing this Thread

ในขณะนี้มี 1 ท่านดูกระทู้อยู่. (0 สมาชิกและ 1 ผู้เยี่ยมชม)

     

กฎการโพสต์ข้อความ

  • ท่าน ไม่สามารถ ตั้งกระทู้ใหม่ได้
  • ท่าน ไม่สามารถ ตอบกระทู้ได้
  • ท่าน ไม่สามารถ แนบไฟล์ได้
  • ท่าน ไม่สามารถ แก้ไขข้อความโพสต์ได้
  • BB code สถานะ เปิด
  • Smilies สถานะ เปิด
  • [IMG] สถานะ เปิด
  • HTML สถานะ ปิด