+ ตอบกลับกระทู้
สรุปผลการค้นหา 1 ถึง 3 จากทั้งหมด 3
  1. #1
    Administrators รูปส่วนตัว Duckload.us
    สมัครเมื่อ
    Dec 2010
    โพสต์
    114,385
    Thanks
    7
    Thanked 120,589 Times in 54,259 Posts

    Question [ใหม่][ Undercover Punch and Gun (Wo hu qian long) (2019) ทลายแผนอาชญกรรมระห่ำโลก ] 1080p [ พากย์ไทย ] [ Master ]




    Undercover Punch and Gun_(2019)
    ตำรวจนอกเครื่องแบบวู มีส่วนเกี่ยวข้องในการค้ายาบ้ากับแก๊งของเขา อย่างไร่ก็ตามการค้าไม่ได้เป็นไปตามข้อตกลง
    เมื่อสมาชิกกองกำลังพิเศษ อีวา และไมค์ ก้าวก่ายในการดำเนินการ เซี่น ราชาผู้ลักลอบขนยาเสพติดและเป็นหนึ่งในผู้ค้ายาเสพติ ดรายใหญ่ที่สุดได้จับตัววู
    และบังคับให้เขาหายาตามที่เขาต้องการกลับคืนมา วูได้ร่วมทีกับอีวา และไมค์ เพื่อต่อสู้กับเซี่ย และกำจัดขบวนการลอบขนยาเสพติด!!!
    •
    •
    จุดเด่นของเรื่องนี้
    นำแสดงโดย Philip Ng โดยเคยแสดงเรื่อง New Police Story Invisible Target Bodyguard and Assassins Naked Soldier
    และ Young & Dangerous Reloaded โดยในเรื่อง Once upon a Time in Shanghai เขาได้รับบทเป็น หม่าหย่งเจิน

    Format : MPEG-4
    Format profile : Base Media
    Codec ID : isom (isom/iso2/avc1/mp41)
    File size : 2.62 GiB
    Duration : 1 h 29 min
    Overall bit rate mode : Variable
    Overall bit rate : 4 169 kb/s

    Video
    ID : 1
    Format : AVC
    Format/Info : Advanced Video Codec
    Format profile : [email protected]
    Format settings : CABAC / 4 Ref Frames
    Format settings, CABAC : Yes
    Format settings, Reference frames : 4 frames
    Format settings, GOP : M=1, N=76
    Codec ID : avc1
    Codec ID/Info : Advanced Video Coding
    Duration : 1 h 29 min
    Duration_FirstFrame : 46 ms
    Bit rate mode : Variable
    Bit rate : 3 957 kb/s
    Maximum bit rate : 12.0 Mb/s
    Width : 1 920 pixels
    Height : 830 pixels
    Display aspect ratio : 2.35:1
    Frame rate mode : Constant
    Frame rate : 25.000 FPS
    Color space : YUV
    Chroma subsampling : 4:2:0
    Bit depth : 8 bits
    Scan type : Progressive
    Bits/(Pixel*Frame) : 0.099
    Stream size : 2.49 GiB (95%)
    Tagged date : UTC 2020-05-19 21:44:34
    Codec configuration box : avcC

    Audio
    ID : 2
    Format : AAC LC
    Format/Info : Advanced Audio Codec Low Complexity
    Codec ID : mp4a-40-2
    Duration : 1 h 29 min
    Bit rate mode : Constant
    Bit rate : 210 kb/s
    Channel(s) : 2 channels
    Channel layout : L R
    Sampling rate : 44.1 kHz
    Frame rate : 43.066 FPS (1024 SPF)
    Compression mode : Lossy
    Stream size : 135 MiB (5%)
    Default : Yes
    Alternate group : 1
    Tagged date : UTC 2020-05-19 21:44:34





    Download: cornfile
    http://cornfile.com/zvjc0m0oiw6v
    Download: mekafile
    http://www.mekafile.com/dl.php?f=jGd1dcc9dC0F

  2. The Following 2 Users Say Thank You to Duckload.us For This Useful Post:

    apichartdear (05-22-2020), Jodz14 (05-23-2020)

  3. #2
    Senior Member
    สมัครเมื่อ
    Jun 2014
    โพสต์
    3,791
    Thanks
    0
    Thanked 0 Times in 0 Posts
    ขอบคุณครับ

  4. #3
    Senior Member
    สมัครเมื่อ
    Jul 2013
    โพสต์
    550
    Thanks
    0
    Thanked 0 Times in 0 Posts
    ขอบคุรครับ

+ ตอบกลับกระทู้

ข้อมูลกระทู้

Users Browsing this Thread

ในขณะนี้มี 1 ท่านดูกระทู้อยู่. (0 สมาชิกและ 1 ผู้เยี่ยมชม)

     

กฎการโพสต์ข้อความ

  • ท่าน ไม่สามารถ ตั้งกระทู้ใหม่ได้
  • ท่าน ไม่สามารถ ตอบกระทู้ได้
  • ท่าน ไม่สามารถ แนบไฟล์ได้
  • ท่าน ไม่สามารถ แก้ไขข้อความโพสต์ได้
  • BB code สถานะ เปิด
  • Smilies สถานะ เปิด
  • [IMG] สถานะ เปิด
  • HTML สถานะ ปิด