+ ตอบกลับกระทู้
สรุปผลการค้นหา 1 ถึง 2 จากทั้งหมด 2
  1. #1
    Administrators รูปส่วนตัว Duckload.us
    สมัครเมื่อ
    Dec 2010
    โพสต์
    114,509
    Thanks
    7
    Thanked 120,831 Times in 54,329 Posts

    Question Bombshell (2019) แฉกระฉ่อนโลก 1080p BluRay x264 [พากย์:ไทยมาสเตอร์+อังกฤษ][SUB:อังกฤษ]



    Bombshell_(2019)
    เมื่อหญิงสาวสามคนผู้เป็นพิธีกรและผู้ประกาศสาว เมจิน เคลลี เกรตเชน คาร์ลสัน เคย์ลา พอสพิซิล ถูกคุกคามทางเพศ
    จาก โรเจอร์ ไอล์ส เจ้าพ่อวงการข่าวผู้บริหารสถานีโทรทัศน์ Fox News นำไปสู่การที่พวกเธอต้องร่วมมือกันเพื่อแฉ
    และเปิดโปงเบื้องลึกของการกระทำนี้ให้ถึงที่สุด!!!
    •
    •
    จุดเด่นของเรื่อง
    -ผ่านการกำกับโดย เจย์ โรช เจ้าของผลงาน Trumbo (2015) ที่เคยได้รับการเสนอชื่อเข้าชิงรางวัลออสการ์และลูกโ ลกทองคำมาแล้วเมื่อปี 2016
    และเขียนบทโดย ชาร์ลส แรนดอล์ฟ เจ้าของรางวัลออสการ์และบาฟตาสาขาบทภาพยนตร์ดัดแปลงย อดเยี่ยมจาก The Big Short (2015)
    - นักแสดงโดยระดับ 3 ตัวแม่ ชาร์ลิซ เธอรอน-นิโคล คิดแมน-มาร์โกต์ ร็อบบี้ ที่ดีกรีมาในระดับเจ้าของรางวันออสการ์
    และได้รับการเสนอชื่อเข้าชิงรางวัลออสการ์ เพียงเท่านี้ก็ทำให้ภาพยนตร์แนวดราม่า Bombshell กลายเป็นอีกหนึ่งผลงาน
    ที่คอหนังทุกคนต่างต้องเฝ้าติดตามรอชมแบบชนิดห้ามพลา ดกันเลยทีเดียว!!!


    Format : Matroska
    Format version : Version 4
    File size : 4.06 GiB
    Duration : 1 h 48 min
    Overall bit rate : 5 342 kb/s
    Movie name : Bombshell 1080p BluRay x264-SlishMay
    Encoded date : UTC 2020-05-20 09:51:49
    Writing application : mkvmerge v44.0.0 ('Domino') 64-bit
    Writing library : libebml v1.3.10 + libmatroska v1.5.2

    Video
    ID : 1
    Format : AVC
    Format/Info : Advanced Video Codec
    Format profile : [email protected]
    Format settings : CABAC / 4 Ref Frames
    Format settings, CABAC : Yes
    Format settings, Reference frames : 4 frames
    Codec ID : V_MPEG4/ISO/AVC
    Duration : 1 h 48 min
    Bit rate : 4 701 kb/s
    Width : 1 920 pixels
    Height : 804 pixels
    Display aspect ratio : 2.40:1
    Frame rate mode : Constant
    Frame rate : 23.976 (24000/1001) FPS
    Color space : YUV
    Chroma subsampling : 4:2:0
    Bit depth : 8 bits
    Scan type : Progressive
    Bits/(Pixel*Frame) : 0.127
    Stream size : 3.57 GiB (88%)
    Writing library : x264 core 157 r2935 545de2f
    Encoding settings : cabac=1 / ref=2 / deblock=1:0:0 / analyse=0x1:0x111 / me=hex / subme=6 / psy=1 / psy_rd=1.00:0.00 / mixed_ref=1 / me_range=16 / chroma_me=1 / trellis=1 / 8x8dct=0 / cqm=0 / deadzone=21,11 / fast_pskip=1 / chroma_qp_offset=-2 / threads=12 / lookahead_threads=2 / sliced_threads=0 / nr=0 / decimate=1 / interlaced=0 / bluray_compat=0 / constrained_intra=0 / bframes=3 / b_pyramid=2 / b_adapt=1 / b_bias=0 / direct=1 / weightb=1 / open_gop=0 / weightp=1 / keyint=240 / keyint_min=24 / scenecut=40 / intra_refresh=0 / rc_lookahead=30 / rc=2pass / mbtree=1 / bitrate=4701 / ratetol=1.0 / qcomp=0.60 / qpmin=0 / qpmax=69 / qpstep=4 / cplxblur=20.0 / qblur=0.5 / vbv_maxrate=50000 / vbv_bufsize=62500 / nal_hrd=none / filler=0 / ip_ratio=1.40 / aq=1:1.00
    Language : English
    Default : Yes
    Forced : No
    Color range : Limited
    Color primaries : BT.709
    Transfer characteristics : BT.709
    Matrix coefficients : BT.709

    Audio #1
    ID : 2
    Format : AC-3
    Format/Info : Audio Coding 3
    Commercial name : Dolby Digital
    Codec ID : A_AC3
    Duration : 1 h 48 min
    Bit rate mode : Constant
    Bit rate : 256 kb/s
    Channel(s) : 2 channels
    Channel layout : L R
    Sampling rate : 48.0 kHz
    Frame rate : 31.250 FPS (1536 SPF)
    Bit depth : 16 bits
    Compression mode : Lossy
    Delay relative to video : -1 ms
    Stream size : 199 MiB (5%)
    Title : Master 2.0
    Language : Thai
    Service kind : Complete Main
    Default : Yes
    Forced : No

    Audio #2
    ID : 3
    Format : AAC LC
    Format/Info : Advanced Audio Codec Low Complexity
    Codec ID : A_AAC-2
    Duration : 1 h 48 min
    Bit rate : 373 kb/s
    Channel(s) : 6 channels
    Channel layout : C L R Ls Rs LFE
    Sampling rate : 48.0 kHz
    Frame rate : 46.875 FPS (1024 SPF)
    Compression mode : Lossy
    Delay relative to video : -1 ms
    Stream size : 290 MiB (7%)
    Title : Surround
    Language : English
    Default : No
    Forced : No

    Text
    ID : 4
    Format : VobSub
    Muxing mode : zlib
    Codec ID : S_VOBSUB
    Codec ID/Info : Picture based subtitle format used on DVDs
    Duration : 1 h 43 min
    Bit rate : 18.2 kb/s
    Count of elements : 1988
    Stream size : 13.4 MiB (0%)
    Language : English
    Default : Yes
    Forced : No

    Menu
    00:00:00.000 : :Chapter 1
    00:05:27.035 : :Chapter 2
    00:11:49.792 : :Chapter 3
    00:18:26.272 : :Chapter 4
    00:24:45.526 : :Chapter 5
    00:32:00.961 : :Chapter 6
    00:35:00.724 : :Chapter 7
    00:43:37.490 : :Chapter 8
    00:47:00.693 : :Chapter 9
    00:51:10.067 : :Chapter 10
    00:59:33.278 : :Chapter 11
    01:06:25.607 : :Chapter 12
    01:14:31.592 : :Chapter 13
    01:22:41.832 : :Chapter 14
    01:32:31.880 : :Chapter 15
    01:42:38.069 : :Chapter 16





    Download: cornfile
    http://cornfile.com/4wysqshjm2si
    Download: mekafile
    http://www.mekafile.com/dl.php?f=By9eb0c9geVk

  2. #2
    Senior Member
    สมัครเมื่อ
    Jul 2013
    โพสต์
    581
    Thanks
    0
    Thanked 0 Times in 0 Posts
    ขอบคุณครับ

+ ตอบกลับกระทู้

ข้อมูลกระทู้

Users Browsing this Thread

ในขณะนี้มี 1 ท่านดูกระทู้อยู่. (0 สมาชิกและ 1 ผู้เยี่ยมชม)

     

กฎการโพสต์ข้อความ

  • ท่าน ไม่สามารถ ตั้งกระทู้ใหม่ได้
  • ท่าน ไม่สามารถ ตอบกระทู้ได้
  • ท่าน ไม่สามารถ แนบไฟล์ได้
  • ท่าน ไม่สามารถ แก้ไขข้อความโพสต์ได้
  • BB code สถานะ เปิด
  • Smilies สถานะ เปิด
  • [IMG] สถานะ เปิด
  • HTML สถานะ ปิด