+ ตอบกลับกระทู้
สรุปผลการค้นหา 1 ถึง 7 จากทั้งหมด 7
  1. #1
    Administrators รูปส่วนตัว Duckload.us
    สมัครเมื่อ
    Dec 2010
    โพสต์
    118,741
    Thanks
    7
    Thanked 124,698 Times in 55,813 Posts

    Cool [จีน]-[* WeTV * ] The Enchanting Phantom (2020) : โปเยโปโลเย [เสียงไทย + เสียงจีน] [บรรยายไทย + อังกฤษ] [เสียง + ซับไทย Master From WeTV + ซับ PGS คมชัด]-WEB-DL.H.264.1080p. [Modified]-[พากย์ไทย บรรยายไทย]



    The Enchanting Phantom (2020) : โปเยโปโลเย

    บัณฑิตนิ่งไฉ่เฉินเดินทางไปเมืองหลวงเพื่อสอบขุนนาง ตกดึกนอนพักที่วัดหลานรั่วซือ และได้บังเอิญพบกับเนี่ยเสี่ยวเชี่ยนปีศาจสาวที่ออกม าล่าเหยื่อดูดกลืนวิญญาณของชายหนุ่มแทนปีศาจแม่เฒ่า ทั้งเสี่ยวเชี่ยนและนิ่งไฉ่เฉินผ่านร้อนผ่านหนาวด้วย กันจนค่อย ๆ เกิดเป็นความรัก แต่ทว่าปีศาจแม่เฒ่าจะให้เสี่ยวเชี่ยนแต่งงานกับปีศา จแก่แห่งเฮยซาน เรื่องราวความรักระหว่างคนกับปีศาจจะลงเอยอย่างไร


    Format : Matroska
    Format version : Version 4
    File size : 2.23 GiB
    Duration : 1 h 36 min
    Overall bit rate : 3 304 kb/s
    Movie name : The.Enchanting.Phantom.2020.1080p.WEB-DL.AC3.x264_SkiesIT
    Encoded date : UTC 2020-05-21 13:50:33
    Writing application : mkvmerge v46.0.0 ('No Deeper Escape') 64-bit
    Writing library : libebml v1.3.10 + libmatroska v1.5.2

    Video
    ID : 1
    Format : AVC
    Format/Info : Advanced Video Codec
    Format profile : [email protected]
    Format settings : CABAC / 4 Ref Frames
    Format settings, CABAC : Yes
    Format settings, Reference frames : 4 frames
    Codec ID : V_MPEG4/ISO/AVC
    Duration : 1 h 36 min
    Bit rate : 1 740 kb/s
    Width : 1 920 pixels
    Height : 818 pixels
    Display aspect ratio : 2.35:1
    Frame rate mode : Constant
    Frame rate : 25.000 FPS
    Color space : YUV
    Chroma subsampling : 4:2:0
    Bit depth : 8 bits
    Scan type : Progressive
    Bits/(Pixel*Frame) : 0.044
    Stream size : 1.17 GiB (53%)
    Title : The.Enchanting.Phantom.2020.1080p.WEB-DL.AC3.x264_SkiesIT
    Language : Chinese
    Default : Yes
    Forced : No
    Color range : Limited
    Color primaries : BT.709
    Matrix coefficients : BT.709

    Audio #1
    ID : 2
    Format : AC-3
    Format/Info : Audio Coding 3
    Commercial name : Dolby Digital
    Codec ID : A_AC3
    Duration : 1 h 36 min
    Bit rate mode : Constant
    Bit rate : 640 kb/s
    Channel(s) : 6 channels
    Channel layout : L R C LFE Ls Rs
    Sampling rate : 48.0 kHz
    Frame rate : 31.250 FPS (1536 SPF)
    Compression mode : Lossy
    Stream size : 442 MiB (19%)
    Language : Thai
    Service kind : Complete Main
    Default : Yes
    Forced : No

    Audio #2
    ID : 3
    Format : AC-3
    Format/Info : Audio Coding 3
    Commercial name : Dolby Digital
    Codec ID : A_AC3
    Duration : 1 h 36 min
    Bit rate mode : Constant
    Bit rate : 640 kb/s
    Channel(s) : 6 channels
    Channel layout : L R C LFE Ls Rs
    Sampling rate : 48.0 kHz
    Frame rate : 31.250 FPS (1536 SPF)
    Compression mode : Lossy
    Stream size : 442 MiB (19%)
    Language : Chinese
    Service kind : Complete Main
    Default : No
    Forced : No

    Audio #3
    ID : 4
    Format : AAC LC
    Format/Info : Advanced Audio Codec Low Complexity
    Codec ID : A_AAC-2
    Duration : 1 h 36 min
    Bit rate : 96.0 kb/s
    Channel(s) : 2 channels
    Channel layout : L R
    Sampling rate : 48.0 kHz
    Frame rate : 46.875 FPS (1024 SPF)
    Compression mode : Lossy
    Stream size : 66.3 MiB (3%)
    Language : Thai
    Default : No
    Forced : No

    Audio #4
    ID : 5
    Format : AAC LC
    Format/Info : Advanced Audio Codec Low Complexity
    Codec ID : A_AAC-2
    Duration : 1 h 36 min
    Bit rate : 96.0 kb/s
    Channel(s) : 2 channels
    Channel layout : L R
    Sampling rate : 48.0 kHz
    Frame rate : 46.875 FPS (1024 SPF)
    Compression mode : Lossy
    Stream size : 66.3 MiB (3%)
    Language : Chinese
    Default : No
    Forced : No

    Text #1
    ID : 6
    Format : UTF-8
    Codec ID : S_TEXT/UTF8
    Codec ID/Info : UTF-8 Plain Text
    Duration : 1 h 26 min
    Bit rate : 87 b/s
    Count of elements : 1174
    Stream size : 55.7 KiB (0%)
    Title : Thai SRT From WeTV
    Language : Thai
    Default : Yes
    Forced : No

    Text #2
    ID : 7
    Format : UTF-8
    Codec ID : S_TEXT/UTF8
    Codec ID/Info : UTF-8 Plain Text
    Duration : 1 h 30 min
    Bit rate : 33 b/s
    Count of elements : 1203
    Stream size : 22.3 KiB (0%)
    Title : English SRT
    Language : English
    Default : No
    Forced : No

    Text #3
    ID : 8
    Format : PGS
    Muxing mode : zlib
    Codec ID : S_HDMV/PGS
    Codec ID/Info : Picture based subtitle format used on BDs/HD-DVDs
    Duration : 1 h 26 min
    Bit rate : 27.1 kb/s
    Count of elements : 2328
    Stream size : 16.8 MiB (1%)
    Title : Thai PGS [Angsana]
    Language : Thai
    Default : No
    Forced : No

    Text #4
    ID : 9
    Format : PGS
    Muxing mode : zlib
    Codec ID : S_HDMV/PGS
    Codec ID/Info : Picture based subtitle format used on BDs/HD-DVDs
    Duration : 1 h 26 min
    Bit rate : 27.1 kb/s
    Count of elements : 2328
    Stream size : 16.8 MiB (1%)
    Title : Thai PGS [Angsana Yellow]
    Language : Thai
    Default : No
    Forced : No

    Text #5
    ID : 10
    Format : PGS
    Muxing mode : zlib
    Codec ID : S_HDMV/PGS
    Codec ID/Info : Picture based subtitle format used on BDs/HD-DVDs
    Duration : 1 h 26 min
    Bit rate : 27.2 kb/s
    Count of elements : 2328
    Stream size : 16.8 MiB (1%)
    Title : Thai PGS [Saranun]
    Language : Thai
    Default : No
    Forced : No

    Text #6
    ID : 11
    Format : PGS
    Muxing mode : zlib
    Codec ID : S_HDMV/PGS
    Codec ID/Info : Picture based subtitle format used on BDs/HD-DVDs
    Duration : 1 h 26 min
    Bit rate : 27.2 kb/s
    Count of elements : 2328
    Stream size : 16.8 MiB (1%)
    Title : Thai PGS [Saranun Yellow]
    Language : Thai
    Default : No
    Forced : No

    Text #7
    ID : 12
    Format : PGS
    Muxing mode : zlib
    Codec ID : S_HDMV/PGS
    Codec ID/Info : Picture based subtitle format used on BDs/HD-DVDs
    Duration : 1 h 26 min
    Bit rate : 26.6 kb/s
    Count of elements : 2328
    Stream size : 16.4 MiB (1%)
    Title : Thai PGS [Niramit]
    Language : Thai
    Default : No
    Forced : No

    Text #8
    ID : 13
    Format : PGS
    Muxing mode : zlib
    Codec ID : S_HDMV/PGS
    Codec ID/Info : Picture based subtitle format used on BDs/HD-DVDs
    Duration : 1 h 26 min
    Bit rate : 26.6 kb/s
    Count of elements : 2328
    Stream size : 16.4 MiB (1%)
    Title : Thai PGS [Niramit Yellow]
    Language : Thai
    Default : No
    Forced : No

    Text #9
    ID : 14
    Format : PGS
    Muxing mode : zlib
    Codec ID : S_HDMV/PGS
    Codec ID/Info : Picture based subtitle format used on BDs/HD-DVDs
    Duration : 1 h 30 min
    Bit rate : 25.6 kb/s
    Count of elements : 2404
    Stream size : 16.6 MiB (1%)
    Title : English PGS
    Language : English
    Default : No
    Forced : No













    Download: filecondo
    http://www.filecondo.com/dl.php?f=pe8bec1JC0jU
    Download: cornfile
    http://cornfile.com/flnisepvvurf
    Download: mekafile
    http://www.filecondo.com/dl.php?f=bG99ccc9hZ4S

  2. The Following 6 Users Say Thank You to Duckload.us For This Useful Post:

    apichartdear (05-22-2020), gaszolineskywalker (06-03-2020), Jodz14 (05-23-2020), noi54 (05-23-2020), Timarat (05-25-2020), Wesker_TOT (05-23-2020)

  3. #2
    Senior Member
    สมัครเมื่อ
    Jul 2012
    โพสต์
    7,087
    Thanks
    0
    Thanked 0 Times in 0 Posts
    ขอบคุณมากจ้า

  4. #3
    Senior Member
    สมัครเมื่อ
    Jul 2013
    โพสต์
    1,188
    Thanks
    0
    Thanked 0 Times in 0 Posts
    หนังจีนหลังๆนี่ เน้น กราฟฟิกเยอะซะจนขาดสเน่ห์ไปเลย

  5. #4
    Senior Member
    สมัครเมื่อ
    Dec 2013
    โพสต์
    2,385
    Thanks
    4,310
    Thanked 0 Times in 0 Posts
    ขอบคุณนะครับ...

  6. #5
    Senior Member
    สมัครเมื่อ
    Feb 2020
    โพสต์
    193
    Thanks
    0
    Thanked 0 Times in 0 Posts
    ขอบคุณครับ

  7. #6
    Senior Member
    สมัครเมื่อ
    Jun 2014
    โพสต์
    4,621
    Thanks
    0
    Thanked 0 Times in 0 Posts
    ขอบคุณครับ

  8. #7
    Senior Member
    สมัครเมื่อ
    Oct 2012
    โพสต์
    1,293
    Thanks
    2,221
    Thanked 0 Times in 0 Posts
    ขอบคุณครับ

+ ตอบกลับกระทู้

ข้อมูลกระทู้

Users Browsing this Thread

ในขณะนี้มี 1 ท่านดูกระทู้อยู่. (0 สมาชิกและ 1 ผู้เยี่ยมชม)

     

กฎการโพสต์ข้อความ

  • ท่าน ไม่สามารถ ตั้งกระทู้ใหม่ได้
  • ท่าน ไม่สามารถ ตอบกระทู้ได้
  • ท่าน ไม่สามารถ แนบไฟล์ได้
  • ท่าน ไม่สามารถ แก้ไขข้อความโพสต์ได้
  • BB code สถานะ เปิด
  • Smilies สถานะ เปิด
  • [IMG] สถานะ เปิด
  • HTML สถานะ ปิด