+ ตอบกลับกระทู้
สรุปผลการค้นหา 1 ถึง 3 จากทั้งหมด 3
  1. #1
    Administrators รูปส่วนตัว Duckload.us
    สมัครเมื่อ
    Dec 2010
    โพสต์
    114,357
    Thanks
    7
    Thanked 120,580 Times in 54,258 Posts

    Question Mortal Kombat Legends - Scorpions Revenge (2020) 1080p BRip x264 [พากย์:ไทยมาสเตอร์ 2.0+อังกฤษdts][SUB:อังกฤษ]



    เรื่องราวของ Hanzo Hasashi ผู้ซึ่งหลังจากสูญเสียครอบครัวของเขาถูกกำจัดอย่างไร ้ความปราณีโดย Sub-Zero เจ้าของไร้ยางอายที่ถูกเนรเทศ เมื่อไปถึงที่นั่นและเพื่อแลกกับการเป็นทาสให้กับคนท ี่น่ากลัว Quan Chi เขาได้รับโอกาสที่จะล้างแค้นครอบครัวของเขาฟื้นคืนชี พในฐานะแมงป่องวิญญาณที่หลงหายเพื่อไล่ล้างแค้น

    Format : Matroska
    Format version : Version 4
    File size : 3.16 GiB
    Duration : 1 h 19 min
    Overall bit rate : 5 659 kb/s
    Movie name : Legends: Scorpions Revenge SLM
    Encoded date : UTC 2020-05-18 06:50:30
    Writing application : mkvmerge v44.0.0 ('Domino') 64-bit
    Writing library : libebml v1.3.10 + libmatroska v1.5.2
    Uploader : CharlX
    Web : www.alt-torrent.com

    Video
    ID : 1
    Format : AVC
    Format/Info : Advanced Video Codec
    Format profile : [email protected]
    Format settings : CABAC / 4 Ref Frames
    Format settings, CABAC : Yes
    Format settings, Reference frames : 4 frames
    Codec ID : V_MPEG4/ISO/AVC
    Duration : 1 h 19 min
    Bit rate : 3 882 kb/s
    Width : 1 920 pixels
    Height : 1 080 pixels
    Display aspect ratio : 16:9
    Frame rate mode : Constant
    Frame rate : 23.976 (24000/1001) FPS
    Color space : YUV
    Chroma subsampling : 4:2:0
    Bit depth : 8 bits
    Scan type : Progressive
    Bits/(Pixel*Frame) : 0.078
    Stream size : 2.17 GiB (69%)
    Writing library : x264 core 157 r2935 545de2f
    Encoding settings : cabac=1 / ref=4 / deblock=1:0:0 / analyse=0x3:0x133 / me=umh / subme=10 / psy=1 / psy_rd=1.00:0.00 / mixed_ref=1 / me_range=24 / chroma_me=1 / trellis=2 / 8x8dct=1 / cqm=0 / deadzone=21,11 / fast_pskip=1 / chroma_qp_offset=-2 / threads=24 / lookahead_threads=4 / sliced_threads=0 / nr=0 / decimate=1 / interlaced=0 / bluray_compat=0 / constrained_intra=0 / bframes=8 / b_pyramid=2 / b_adapt=2 / b_bias=0 / direct=3 / weightb=1 / open_gop=0 / weightp=2 / keyint=240 / keyint_min=24 / scenecut=40 / intra_refresh=0 / rc_lookahead=60 / rc=crf / mbtree=1 / crf=20.0 / qcomp=0.60 / qpmin=0 / qpmax=69 / qpstep=4 / vbv_maxrate=62500 / vbv_bufsize=78125 / crf_max=0.0 / nal_hrd=none / filler=0 / ip_ratio=1.40 / aq=1:1.00
    Language : English
    Default : Yes
    Forced : No
    Color range : Limited
    Color primaries : BT.709
    Transfer characteristics : BT.709
    Matrix coefficients : BT.709

    Audio #1
    ID : 2
    Format : AC-3
    Format/Info : Audio Coding 3
    Commercial name : Dolby Digital
    Codec ID : A_AC3
    Duration : 1 h 19 min
    Bit rate mode : Constant
    Bit rate : 256 kb/s
    Channel(s) : 2 channels
    Channel layout : L R
    Sampling rate : 48.0 kHz
    Frame rate : 31.250 FPS (1536 SPF)
    Bit depth : 16 bits
    Compression mode : Lossy
    Stream size : 146 MiB (5%)
    Title : [core 2.0]
    Language : Thai
    Service kind : Complete Main
    Default : Yes
    Forced : No

    Audio #2
    ID : 3
    Format : DTS
    Format/Info : Digital Theater Systems
    Codec ID : A_DTS
    Duration : 1 h 19 min
    Bit rate mode : Constant
    Bit rate : 1 509 kb/s
    Channel(s) : 6 channels
    Channel layout : C L R Ls Rs LFE
    Sampling rate : 48.0 kHz
    Frame rate : 93.750 FPS (512 SPF)
    Bit depth : 24 bits
    Compression mode : Lossy
    Stream size : 863 MiB (27%)
    Title : [DTS Core 5.1]
    Language : English
    Default : No
    Forced : No

    Text
    ID : 4
    Format : PGS
    Muxing mode : zlib
    Codec ID : S_HDMV/PGS
    Codec ID/Info : Picture based subtitle format used on BDs/HD-DVDs
    Duration : 1 h 17 min
    Bit rate : 28.6 kb/s
    Count of elements : 2120
    Stream size : 15.8 MiB (0%)
    Title : SDH [PGS]
    Language : English
    Default : Yes
    Forced : No

    Menu
    00:00:00.000 : :Chapter 1
    00:09:22.062 : :Chapter 2
    00:19:53.693 : :Chapter 3
    00:28:12.191 : :Chapter 4
    00:35:54.402 : :Chapter 5
    00:45:51.082 : :Chapter 6
    00:55:18.774 : :Chapter 7
    01:04:28.448 : :Chapter 8
    01:13:56.724 : :Chapter 9
    01:17:22.555 : :Chapter 10





    Download: cornfile
    http://cornfile.com/m77ed62fbi71
    Download: mekafile
    http://www.mekafile.com/dl.php?f=9r53c5c9lac5

  2. The Following 3 Users Say Thank You to Duckload.us For This Useful Post:

    apichartdear (05-23-2020), Jodz14 (05-23-2020), Wesker_TOT (05-24-2020)

  3. #2
    Senior Member
    สมัครเมื่อ
    Jun 2014
    โพสต์
    3,751
    Thanks
    0
    Thanked 0 Times in 0 Posts
    ขอบคุณครับ

  4. #3
    Senior Member
    สมัครเมื่อ
    Dec 2013
    โพสต์
    2,085
    Thanks
    4,005
    Thanked 0 Times in 0 Posts
    ขอบคุณนะครับ...

+ ตอบกลับกระทู้

ข้อมูลกระทู้

Users Browsing this Thread

ในขณะนี้มี 1 ท่านดูกระทู้อยู่. (0 สมาชิกและ 1 ผู้เยี่ยมชม)

     

กฎการโพสต์ข้อความ

  • ท่าน ไม่สามารถ ตั้งกระทู้ใหม่ได้
  • ท่าน ไม่สามารถ ตอบกระทู้ได้
  • ท่าน ไม่สามารถ แนบไฟล์ได้
  • ท่าน ไม่สามารถ แก้ไขข้อความโพสต์ได้
  • BB code สถานะ เปิด
  • Smilies สถานะ เปิด
  • [IMG] สถานะ เปิด
  • HTML สถานะ ปิด