+ ตอบกลับกระทู้
สรุปผลการค้นหา 1 ถึง 4 จากทั้งหมด 4
  1. #1
    Administrators รูปส่วนตัว Duckload.us
    สมัครเมื่อ
    Dec 2010
    โพสต์
    115,767
    Thanks
    7
    Thanked 122,106 Times in 54,815 Posts

    Question [ฝรั่ง]-ใหม่ [* MINI-HD 1080p ไฟล์เล็กคุณภาพสูง! *] The Lodge (2019) : เดอะลอดจ์ [เสียงอังกฤษ 5.1 + พากย์ไทย Master] [บรรยาย: ไทย + อังกฤษ] [เสียงไทย From True ID + ซับไทย PGS คมชัด!]



    ••• The Lodge.2019.1080p.BrRip.THI.x264 •••
    เสียงอังกฤษ 5.1 + พากย์ไทย Master + บรรยาย: ไทย + อังกฤษ

    The Lodge หนังเป็นเรื่องราวของพี่น้องคู่หนึ่งที่พ่อกำลังจะแต ่งงานกับผู้หญิงคนใหม่ แต่ก่อนที่เธอจะกลายมาเป็นแม่เลี้ยง ผู้เป็นพ่อก็พาทั้งหมดไปพักผ่อนในกระท่อมพักตากอากาศ เพื่อทำความรู้จักกัน แต่เมื่อเกิดหิมะตกและตัดขาดให้แม่เลี้ยงกับลูกเลี้ย งในอนาคตต้องอยู่กันลำพังสามคนในกระท่อม ก็เกิดเหตุการณ์ที่ค่อยๆ เผยความจริงว่าแม่เลี้ยงเคยเป็นสมาชิกลัทธิวันสิ้นโล กมาก่อน เรื่องราวความน่ากลัวก็ค่อยๆ แผ่ซ่านในกระท่อมกลางหิมะแห่งนั้น!

    Format : Matroska
    Format version : Version 4
    File size : 4.40 GiB
    Duration : 1 h 48 min
    Overall bit rate : 5 815 kb/s
    Movie name : {MINI Super-HQ}_The [email protected]

    Video
    ID : 1
    Format : HEVC
    Format/Info : High Efficiency Video Coding
    Format profile : Main [email protected]@Main
    Codec ID : V_MPEGH/ISO/HEVC
    Duration : 1 h 48 min
    Bit rate : 4 994 kb/s
    Width : 1 920 pixels
    Height : 1 040 pixels
    Display aspect ratio : 1.85:1
    Frame rate mode : Constant
    Frame rate : 23.976 (24000/1001) FPS
    Color space : YUV
    Chroma subsampling : 4:2:0
    Bit depth : 10 bits
    Bits/(Pixel*Frame) : 0.104
    Stream size : 3.78 GiB (86%)
    Title : {MINI Super-HQ}_The [email protected]
    Writing library : x265 3.2+23-52135ffd9bcd:[Windows][GCC 9.2.0][64 bit] 10bit
    Encoding settings : cpuid=1111039 / frame-threads=3 / numa-pools=8 / wpp / no-pmode / no-pme / no-psnr / no-ssim / log-level=2 / input-csp=1 / input-res=1920x1040 / interlace=0 / total-frames=155785 / level-idc=0 / high-tier=1 / uhd-bd=0 / ref=4 / no-allow-non-conformance / no-repeat-headers / annexb / no-aud / no-hrd / info / hash=0 / no-temporal-layers / open-gop / min-keyint=23 / keyint=250 / gop-lookahead=0 / bframes=4 / b-adapt=2 / b-pyramid / bframe-bias=0 / rc-lookahead=25 / lookahead-slices=4 / scenecut=40 / hist-scenecut=0 / radl=0 / no-splice / no-intra-refresh / ctu=64 / min-cu-size=8 / rect / no-amp / max-tu-size=32 / tu-inter-depth=1 / tu-intra-depth=1 / limit-tu=0 / rdoq-level=2 / dynamic-rd=0.00 / no-ssim-rd / signh-i-d-e / no-tskip / nr-intra=0 / nr-inter=0 / no-constrained-intra / strong-intra-smoothing / max-merge=3 / limit-refs=3 / limit-modes / me=3 / subme=3 / merange=57 / temporal-mvp / no-frame-dup / no-hme / weightp / no-weightb / no-analyze-src-pics / deblock=0:0 / no-sao / no-sao-non-deblock / rd=4 / selective-sao=0 / no-early-skip / rskip / no-fast-intra / no-tskip-fast / no-cu-lossless / no-b-intra / no-splitrd-skip / rdpenalty=0 / psy-rd=2.00 / psy-rdoq=1.00 / no-rd-refine / no-lossless / cbqpoffs=0 / crqpoffs=0 / rc=abr / bitrate=5000 / qcomp=0.60 / qpstep=4 / stats-write=0 / stats-read=2 / cplxblur=20.0 / qblur=0.5 / ipratio=1.40 / pbratio=1.30 / aq-mode=3 / aq-strength=1.00 / cutree / zone-count=0 / no-strict-cbr / qg-size=32 / no-rc-grain / qpmax=69 / qpmin=0 / no-const-vbv / sar=0 / overscan=0 / videoformat=5 / range=0 / colorprim=2 / transfer=2 / colormatrix=2 / chromaloc=0 / display-window=0 / cll=0,0 / min-luma=0 / max-luma=1023 / log2-max-poc-lsb=8 / vui-timing-info / vui-hrd-info / slices=1 / no-opt-qp-pps / no-opt-ref-list-length-pps / multi-pass-opt-rps / scenecut-bias=0.05 / hist-threshold=0.01 / no-opt-cu-delta-qp / aq-motion / no-hdr / no-hdr-opt / no-dhdr10-opt / no-idr-recovery-sei / analysis-reuse-level=5 / scale-factor=0 / refine-intra=0 / refine-inter=0 / refine-mv=1 / refine-ctu-distortion=0 / no-limit-sao / ctu-info=0 / no-lowpass-dct / refine-analysis-type=0 / copy-pic=1 / max-ausize-factor=1.0 / no-dynamic-refine / no-single-sei / no-hevc-aq / no-svt / no-field / qp-adaptation-range=1.00 / no-scenecut-aware-qp
    Language : English
    Default : Yes
    Forced : No

    Audio #1
    ID : 2
    Format : AC-3
    Format/Info : Audio Coding 3
    Commercial name : Dolby Digital
    Codec ID : A_AC3
    Duration : 1 h 48 min
    Bit rate mode : Constant
    Bit rate : 384 kb/s
    Channel(s) : 2 channels
    Channel layout : L R
    Sampling rate : 48.0 kHz
    Frame rate : 31.250 FPS (1536 SPF)
    Compression mode : Lossy
    Stream size : 297 MiB (7%)
    Title : Thai From True ID @ 384 kb/s
    Language : Thai
    Service kind : Complete Main
    Default : Yes
    Forced : No

    Audio #2
    ID : 3
    Format : AAC LC
    Format/Info : Advanced Audio Codec Low Complexity
    Codec ID : A_AAC-2
    Duration : 1 h 48 min
    Bit rate : 375 kb/s
    Channel(s) : 6 channels
    Channel layout : C L R Ls Rs LFE
    Sampling rate : 48.0 kHz
    Frame rate : 46.875 FPS (1024 SPF)
    Compression mode : Lossy
    Delay relative to video : 20 ms
    Stream size : 291 MiB (6%)
    Title : English 5.1 @ 375 kb/s
    Language : English
    Default : No
    Forced : No

    Text #1
    ID : 4
    Format : PGS
    Codec ID : S_HDMV/PGS
    Codec ID/Info : Picture based subtitle format used on BDs/HD-DVDs
    Duration : 1 h 46 min
    Bit rate : 14.4 kb/s
    Count of elements : 1540
    Stream size : 11.0 MiB (0%)
    Title : Thai DilleniaUPC PGS
    Language : Thai
    Default : Yes
    Forced : No

    Text #2
    ID : 5
    Format : PGS
    Codec ID : S_HDMV/PGS
    Codec ID/Info : Picture based subtitle format used on BDs/HD-DVDs
    Duration : 1 h 46 min
    Bit rate : 13.4 kb/s
    Count of elements : 1540
    Stream size : 10.3 MiB (0%)
    Title : Thai PGS
    Language : Thai
    Default : No
    Forced : No

    Text #3
    ID : 6
    Format : PGS
    Codec ID : S_HDMV/PGS
    Codec ID/Info : Picture based subtitle format used on BDs/HD-DVDs
    Duration : 1 h 46 min
    Bit rate : 13.4 kb/s
    Count of elements : 1540
    Stream size : 10.3 MiB (0%)
    Title : Thai PGS Yellow
    Language : Thai
    Default : No
    Forced : No

    Text #4
    ID : 7
    Format : VobSub
    Codec ID : S_VOBSUB
    Codec ID/Info : Picture based subtitle format used on DVDs
    Duration : 1 h 46 min
    Bit rate : 3 939 b/s
    Count of elements : 770
    Stream size : 3.01 MiB (0%)
    Title : Thai DilleniaUPC 1080p
    Language : Thai
    Default : No
    Forced : No

    Text #5
    ID : 8
    Format : VobSub
    Codec ID : S_VOBSUB
    Codec ID/Info : Picture based subtitle format used on DVDs
    Duration : 1 h 46 min
    Bit rate : 3 712 b/s
    Count of elements : 770
    Stream size : 2.84 MiB (0%)
    Title : Thai 1080p Yellow
    Language : Thai
    Default : No
    Forced : No

    Text #6
    ID : 9
    Format : VobSub
    Codec ID : S_VOBSUB
    Codec ID/Info : Picture based subtitle format used on DVDs
    Duration : 1 h 46 min
    Bit rate : 3 708 b/s
    Count of elements : 770
    Stream size : 2.84 MiB (0%)
    Title : Thai 1080p
    Language : Thai
    Default : No
    Forced : No

    Text #7
    ID : 10
    Format : VobSub
    Codec ID : S_VOBSUB
    Codec ID/Info : Picture based subtitle format used on DVDs
    Duration : 1 h 46 min
    Bit rate : 1 998 b/s
    Count of elements : 770
    Stream size : 1.53 MiB (0%)
    Title : Thai 720p
    Language : Thai
    Default : No
    Forced : No

    Text #8
    ID : 11
    Format : VobSub
    Codec ID : S_VOBSUB
    Codec ID/Info : Picture based subtitle format used on DVDs
    Duration : 1 h 46 min
    Bit rate : 1 032 b/s
    Count of elements : 770
    Stream size : 809 KiB (0%)
    Title : Thai 480p
    Language : Thai
    Default : No
    Forced : No

    Text #9
    ID : 12
    Format : VobSub
    Codec ID : S_VOBSUB
    Codec ID/Info : Picture based subtitle format used on DVDs
    Duration : 1 h 48 min
    Bit rate : 3 844 b/s
    Count of elements : 1261
    Stream size : 2.98 MiB (0%)
    Title : English
    Language : English
    Default : No
    Forced : No

    Menu
    00:00:00.000 : en:Chapter 01
    00:12:07.893 : en:Chapter 02
    00:23:59.062 : en:Chapter 03
    00:35:26.874 : en:Chapter 04
    00:47:47.489 : en:Chapter 05
    00:59:46.874 : en:Chapter 06
    01:17:27.768 : en:Chapter 07
    01:42:00.948 : en:Chapter 08













    Download: cornfile
    http://cornfile.com/5lrpsqhu09kz
    Download: mekafile
    http://www.mekafile.com/dl.php?f=i5ecabc9siOU

  2. The Following 5 Users Say Thank You to Duckload.us For This Useful Post:

    apichartdear (05-26-2020), gaszolineskywalker (06-03-2020), markzooms (05-29-2020), noi54 (05-28-2020), smakha (06-04-2020)

  3. #2
    Senior Member
    สมัครเมื่อ
    Jun 2014
    โพสต์
    4,088
    Thanks
    0
    Thanked 0 Times in 0 Posts
    ขอบคุณครับ

  4. #3
    Senior Member
    สมัครเมื่อ
    Jul 2013
    โพสต์
    696
    Thanks
    0
    Thanked 0 Times in 0 Posts
    ขอบคุณครับ

  5. #4
    Senior Member
    สมัครเมื่อ
    Oct 2012
    โพสต์
    1,142
    Thanks
    2,077
    Thanked 0 Times in 0 Posts
    ขอบคุณครับ

+ ตอบกลับกระทู้

ข้อมูลกระทู้

Users Browsing this Thread

ในขณะนี้มี 1 ท่านดูกระทู้อยู่. (0 สมาชิกและ 1 ผู้เยี่ยมชม)

     

กฎการโพสต์ข้อความ

  • ท่าน ไม่สามารถ ตั้งกระทู้ใหม่ได้
  • ท่าน ไม่สามารถ ตอบกระทู้ได้
  • ท่าน ไม่สามารถ แนบไฟล์ได้
  • ท่าน ไม่สามารถ แก้ไขข้อความโพสต์ได้
  • BB code สถานะ เปิด
  • Smilies สถานะ เปิด
  • [IMG] สถานะ เปิด
  • HTML สถานะ ปิด