+ ตอบกลับกระทู้
สรุปผลการค้นหา 1 ถึง 10 จากทั้งหมด 10
  1. #1
    Administrators รูปส่วนตัว Duckload.us
    สมัครเมื่อ
    Dec 2010
    โพสต์
    115,767
    Thanks
    7
    Thanked 122,106 Times in 54,815 Posts

    Question [ฝรั่ง] • [20+] • Enter the Void (2009) ทริปมึนๆ ของวิญญาณเมายา • [เสียงอังกฤษ AAC 5.1] • [บรรยายไทย + อังกฤษ + Srt,PGS คมชัด] • [From Blu-Ray Master 1080p] • หนังที่ทำให้คุณเหมือนเสพยา LSD •



    ฉากหลังที่โสมมของโตเกียวถูกมองผ่านสายตาของออสการ์ (นาธาเนียล บราวน์) ชายหนุ่มผู้ซึ่งใช้ยาเสพติด เขามีน้องสาวชื่อลินดา (แพซ เดอ ลา เฮอร์ต้า) ผู้ซึ่งเป็นนักเต้นระบำเปลื้องผ้า เขายังมีภาพความทรงจำในวัยเด็กถึงสิ่งที่เกิดขึ้นระห ว่างเขากับน้องสาวเป็นภาพที่เห็นบ่อยๆ แต่แล้วภาพหลอนจากการใช้ยาของออสการ์ก็เปลี่ยนไป เมื่อคืนหนึ่งเขาถูกตำรวจยิงตาย วิญญาณของเขาล่องลอยไป และได้เห็นถึงความโศกเศร้าของน้องสาว เขามองเห็นชีวิตถึงในระดับโมเลกุล เห็นสีของสเปกตรัมที่สวยงาม ความไร้สีสันของผู้คนที่มีชีวิตกลับกลายเป็นสิ่งที่น ่าเกลียด และอะไรคือชีวิตหลังความตาย มันมีมากกว่าความว่างเปล่าหรือเปล่า

    Format : Matroska
    Format version : Version 4
    File size : 3.11 GiB
    Duration : 2 h 41 min
    Overall bit rate : 2 759 kb/s
    Movie name : จัดทำโดย Beer
    Encoded date : UTC 2020-05-25 04:28:04
    Writing application : mkvmerge v46.0.0 ('No Deeper Escape') 64-bit
    Writing library : libebml v1.3.10 + libmatroska v1.5.2

    Video
    ID : 1
    Format : AVC
    Format/Info : Advanced Video Codec
    Format profile : [email protected]
    Format settings : CABAC / 4 Ref Frames
    Format settings, CABAC : Yes
    Format settings, Reference fra : 4 frames
    Codec ID : V_MPEG4/ISO/AVC
    Duration : 2 h 41 min
    Bit rate : 2 500 kb/s
    Width : 1 920 pixels
    Height : 816 pixels
    Display aspect ratio : 2.35:1
    Frame rate mode : Constant
    Frame rate : 23.976 (23976/1000) FPS
    Color space : YUV
    Chroma subsampling : 4:2:0
    Bit depth : 8 bits
    Scan type : Progressive
    Bits/(Pixel*Frame) : 0.067
    Stream size : 2.82 GiB (91%)
    Writing library : x264 core 152 r2851M ba24899
    Encoding settings : cabac=1 / ref=4 / deblock=1:-1:-1 / analyse=0x3:0x113 / me=umh / subme=9 / psy=1 / psy_rd=1.00:0.15 / mixed_ref=1 / me_range=24 / chroma_me=1 / trellis=2 / 8x8dct=1 / cqm=0 / deadzone=21,11 / fast_pskip=1 / chroma_qp_offset=-3 / threads=32 / lookahead_threads=4 / sliced_threads=0 / nr=0 / decimate=1 / interlaced=0 / bluray_compat=0 / constrained_intra=0 / bframes=3 / b_pyramid=2 / b_adapt=2 / b_bias=0 / direct=3 / weightb=1 / open_gop=0 / weightp=2 / keyint=250 / keyint_min=25 / scenecut=40 / intra_refresh=0 / rc_lookahead=50 / rc=2pass / mbtree=1 / bitrate=2500 / ratetol=1.0 / qcomp=0.60 / qpmin=0 / qpmax=69 / qpstep=4 / cplxblur=20.0 / qblur=0.5 / vbv_maxrate=31250 / vbv_bufsize=31250 / nal_hrd=none / filler=0 / ip_ratio=1.40 / aq=3:1.00
    Default : Yes
    Forced : No

    Audio
    ID : 2
    Format : AAC LC
    Format/Info : Advanced Audio Codec Low Complexity
    Codec ID : A_AAC-2
    Duration : 2 h 41 min
    Bit rate : 224 kb/s
    Channel(s) : 6 channels
    Channel layout : C L R Ls Rs LFE
    Sampling rate : 48.0 kHz
    Frame rate : 46.875 FPS (1024 SPF)
    Compression mode : Lossy
    Delay relative to video : -43 ms
    Stream size : 258 MiB (8%)
    Language : English
    Default : Yes
    Forced : No

    Text #1
    ID : 3
    Format : PGS
    Muxing mode : zlib
    Codec ID : S_HDMV/PGS
    Codec ID/Info : Picture based subtitle format used on BDs/HD-DVDs
    Duration : 2 h 38 min
    Bit rate : 18.2 kb/s
    Count of elements : 1558
    Stream size : 20.6 MiB (1%)
    Title : Thai PGS
    Language : Thai
    Default : Yes
    Forced : No

    Text #2
    ID : 4
    Format : PGS
    Muxing mode : zlib
    Codec ID : S_HDMV/PGS
    Codec ID/Info : Picture based subtitle format used on BDs/HD-DVDs
    Duration : 2 h 38 min
    Bit rate : 18.2 kb/s
    Count of elements : 1558
    Stream size : 20.6 MiB (1%)
    Title : Thai PGS Out
    Language : Thai
    Default : No
    Forced : No

    Text #3
    ID : 5
    Format : UTF-8
    Codec ID : S_TEXT/UTF8
    Codec ID/Info : UTF-8 Plain Text
    Duration : 2 h 38 min
    Bit rate : 54 b/s
    Count of elements : 779
    Stream size : 62.9 KiB (0%)
    Title : Thai Srt
    Language : Thai
    Default : No
    Forced : No

    Text #4
    ID : 6
    Format : PGS
    Muxing mode : zlib
    Codec ID : S_HDMV/PGS
    Codec ID/Info : Picture based subtitle format used on BDs/HD-DVDs
    Duration : 2 h 33 min
    Bit rate : 16.4 kb/s
    Count of elements : 1838
    Stream size : 18.1 MiB (1%)
    Title : Eng PGS
    Language : English
    Default : No
    Forced : No

    Text #5
    ID : 7
    Format : PGS
    Muxing mode : zlib
    Codec ID : S_HDMV/PGS
    Codec ID/Info : Picture based subtitle format used on BDs/HD-DVDs
    Duration : 2 h 33 min
    Bit rate : 16.4 kb/s
    Count of elements : 1838
    Stream size : 18.1 MiB (1%)
    Title : Eng PGS Out
    Language : English
    Default : No
    Forced : No

    Text #6
    ID : 8
    Format : UTF-8
    Codec ID : S_TEXT/UTF8
    Codec ID/Info : UTF-8 Plain Text
    Duration : 2 h 33 min
    Bit rate : 23 b/s
    Count of elements : 919
    Stream size : 26.4 KiB (0%)
    Title : Eng Srt
    Language : English
    Default : No
    Forced : No







    Download: cornfile
    http://cornfile.com/f1fwaheobs2a
    Download: mekafile
    http://www.mekafile.com/dl.php?f=W2dff0c9sHPw

  2. The Following 4 Users Say Thank You to Duckload.us For This Useful Post:

    agg001 (05-27-2020), noi54 (05-28-2020), RangerZ (05-30-2020), Wesker_TOT (05-27-2020)

  3. #2
    Senior Member
    สมัครเมื่อ
    Jul 2013
    โพสต์
    696
    Thanks
    0
    Thanked 0 Times in 0 Posts
    อื้อหือ ขอบคุณ

  4. #3
    Senior Member
    สมัครเมื่อ
    Dec 2013
    โพสต์
    2,120
    Thanks
    4,040
    Thanked 0 Times in 0 Posts
    ขอบคุณนะครับ...

  5. #4
    Senior Member
    สมัครเมื่อ
    Jan 2011
    โพสต์
    738
    Thanks
    996
    Thanked 0 Times in 0 Posts
    ขอบคุณครับ

  6. #5
    Senior Member
    สมัครเมื่อ
    Oct 2013
    โพสต์
    1,739
    Thanks
    0
    Thanked 0 Times in 0 Posts
    ขอบคุณครับ

  7. #6
    Junior Member
    สมัครเมื่อ
    Mar 2012
    โพสต์
    6
    Thanks
    1
    Thanked 0 Times in 0 Posts
    ไฟล์น่าจะเสียรึป่าวครับ??

  8. #7
    Senior Member
    สมัครเมื่อ
    Jun 2014
    โพสต์
    4,088
    Thanks
    0
    Thanked 0 Times in 0 Posts
    ไฟล์เสียครับ re-up ด้วยครับ ขอบคุณครับ

  9. #8
    Senior Member
    สมัครเมื่อ
    Jan 2011
    โพสต์
    738
    Thanks
    996
    Thanked 0 Times in 0 Posts
    ไฟล์เสียครับ เปิดได้นิดเดียว

  10. #9
    Senior Member
    สมัครเมื่อ
    Jul 2013
    โพสต์
    696
    Thanks
    0
    Thanked 0 Times in 0 Posts
    www.mekafile.com ไม่สามารถดำเนินการกับคำขอนี้ในขณะนี้
    HTTP ERROR 500

    เล่นเราอีกแล้ว เติมเงินทีไร เสียเงินฟรีตลอดเลย 55555+

  11. #10
    Junior Member
    สมัครเมื่อ
    Dec 2013
    โพสต์
    5
    Thanks
    0
    Thanked 0 Times in 0 Posts
    ไฟล์เสียจริง ๆ ครับ

+ ตอบกลับกระทู้

ข้อมูลกระทู้

Users Browsing this Thread

ในขณะนี้มี 1 ท่านดูกระทู้อยู่. (0 สมาชิกและ 1 ผู้เยี่ยมชม)

     

กฎการโพสต์ข้อความ

  • ท่าน ไม่สามารถ ตั้งกระทู้ใหม่ได้
  • ท่าน ไม่สามารถ ตอบกระทู้ได้
  • ท่าน ไม่สามารถ แนบไฟล์ได้
  • ท่าน ไม่สามารถ แก้ไขข้อความโพสต์ได้
  • BB code สถานะ เปิด
  • Smilies สถานะ เปิด
  • [IMG] สถานะ เปิด
  • HTML สถานะ ปิด