+ ตอบกลับกระทู้
สรุปผลการค้นหา 1 ถึง 3 จากทั้งหมด 3
  1. #1
    Administrators รูปส่วนตัว Duckload.us
    สมัครเมื่อ
    Dec 2010
    โพสต์
    115,767
    Thanks
    7
    Thanked 122,104 Times in 54,813 Posts

    Question [ฝรั่ง]-ใหม่ [* 1080p MINI-HD ไฟล์เล็กคุณภาพสูง! *] Waves (2019) [พากย์ไทย Master + อังกฤษ 5.1] [เสียงไทย Master From True ID]



    ••• 1080p.BluRay.THM.H264 •••
    พากย์ไทย Master + เสียงอังกฤษ 5.1

    Waves ตั้งอยู่ท่ามกลางภูมิทัศน์ที่มีชีวิตชีวาของเซาท์ฟลอ ริดาและมีทั้งนักแสดงและนักเต้นที่ได้รับรางวัลมาอย่ างน่าประหลาดใจ Waves ติดตามการเดินทางทางอารมณ์อันยิ่งใหญ่ของครอบครัวชาว แอฟริกัน - อเมริกันชานเมืองที่นำโดยพ่อที่ตั้งใจดี ความรักการให้อภัยและการกลับมาพร้อมกันหลังจากการสูญ เสีย จากผู้กำกับ Trey Edward Shults ผู้โด่งดัง Waves เป็นเรื่องราวที่น่ายินดีเกี่ยวกับความสามารถที่เป็น สากลสำหรับความเห็นอกเห็นใจและการเติบโตแม้ในเวลาที่ มืดมนที่สุด!


    Format : Matroska
    Format version : Version 4
    File size : 2.77 GiB
    Duration : 2 h 15 min
    Overall bit rate : 2 919 kb/s
    Movie name : {MINI-HD}[email protected] ambit

    Video
    ID : 1
    Format : AVC
    Format/Info : Advanced Video Codec
    Format profile : [email protected]
    Format settings : CABAC / 4 Ref Frames
    Format settings, CABAC : Yes
    Format settings, Reference : 4 frames
    Codec ID : V_MPEG4/ISO/AVC
    Duration : 2 h 15 min
    Bit rate : 2 500 kb/s
    Width : 1 920 pixels
    Height : 1 040 pixels
    Display aspect ratio : 1.85:1
    Frame rate mode : Constant
    Frame rate : 23.976 (23976/1000) FPS
    Color space : YUV
    Chroma subsampling : 4:2:0
    Bit depth : 8 bits
    Scan type : Progressive
    Bits/(Pixel*Frame) : 0.052
    Stream size : 2.37 GiB (86%)
    Title : {MINI-HD}[email protected] ambit
    Writing library : x264 core 152 r2851M ba24899
    Encoding settings : cabac=1 / ref=4 / deblock=1:-1:-1 / analyse=0x3:0x113 / me=umh / subme=9 / psy=1 / psy_rd=1.00:0.15 / mixed_ref=1 / me_range=24 / chroma_me=1 / trellis=2 / 8x8dct=1 / cqm=0 / deadzone=21,11 / fast_pskip=1 / chroma_qp_offset=-3 / threads=32 / lookahead_threads=4 / sliced_threads=0 / nr=0 / decimate=1 / interlaced=0 / bluray_compat=0 / constrained_intra=0 / bframes=3 / b_pyramid=2 / b_adapt=2 / b_bias=0 / direct=3 / weightb=1 / open_gop=0 / weightp=2 / keyint=250 / keyint_min=25 / scenecut=40 / intra_refresh=0 / rc_lookahead=50 / rc=2pass / mbtree=1 / bitrate=2500 / ratetol=1.0 / qcomp=0.60 / qpmin=0 / qpmax=69 / qpstep=4 / cplxblur=20.0 / qblur=0.5 / vbv_maxrate=31250 / vbv_bufsize=31250 / nal_hrd=none / filler=0 / ip_ratio=1.40 / aq=3:1.00
    Language : English
    Default : Yes
    Forced : No

    Audio #1
    ID : 2
    Format : AC-3
    Format/Info : Audio Coding 3
    Commercial name : Dolby Digital
    Codec ID : A_AC3
    Duration : 2 h 15 min
    Bit rate mode : Constant
    Bit rate : 192 kb/s
    Channel(s) : 2 channels
    Channel layout : L R
    Sampling rate : 48.0 kHz
    Frame rate : 31.250 FPS (1536 SPF)
    Compression mode : Lossy
    Delay relative to video : -43 ms
    Stream size : 186 MiB (7%)
    Title : Thai Master From True ID @ 192 kb/s
    Language : Thai
    Service kind : Complete Main
    Default : Yes
    Forced : No

    Audio #2
    ID : 3
    Format : AAC LC
    Format/Info : Advanced Audio Codec Low Complexity
    Codec ID : A_AAC-2
    Duration : 2 h 15 min
    Bit rate : 224 kb/s
    Channel(s) : 6 channels
    Channel layout : C L R Ls Rs LFE
    Sampling rate : 48.0 kHz
    Frame rate : 46.875 FPS (1024 SPF)
    Compression mode : Lossy
    Delay relative to video : -43 ms
    Stream size : 218 MiB (8%)
    Title : English @ 224 kb/s
    Language : English
    Default : No
    Forced : No












    Download: cornfile
    http://cornfile.com/41gseflesy33
    Download: mekafile
    http://www.mekafile.com/dl.php?f=v2b291c9xFCj

  2. The Following 2 Users Say Thank You to Duckload.us For This Useful Post:

    Jodz14 (05-31-2020), noi54 (05-29-2020)

  3. #2
    Senior Member
    สมัครเมื่อ
    Jun 2014
    โพสต์
    4,088
    Thanks
    0
    Thanked 0 Times in 0 Posts
    ขอบคุณครับ

  4. #3
    Senior Member
    สมัครเมื่อ
    Jul 2013
    โพสต์
    696
    Thanks
    0
    Thanked 0 Times in 0 Posts
    ขอบคุณครับผม

+ ตอบกลับกระทู้

ข้อมูลกระทู้

Users Browsing this Thread

ในขณะนี้มี 1 ท่านดูกระทู้อยู่. (0 สมาชิกและ 1 ผู้เยี่ยมชม)

     

กฎการโพสต์ข้อความ

  • ท่าน ไม่สามารถ ตั้งกระทู้ใหม่ได้
  • ท่าน ไม่สามารถ ตอบกระทู้ได้
  • ท่าน ไม่สามารถ แนบไฟล์ได้
  • ท่าน ไม่สามารถ แก้ไขข้อความโพสต์ได้
  • BB code สถานะ เปิด
  • Smilies สถานะ เปิด
  • [IMG] สถานะ เปิด
  • HTML สถานะ ปิด