+ ตอบกลับกระทู้
สรุปผลการค้นหา 1 ถึง 4 จากทั้งหมด 4
  1. #1
    Administrators รูปส่วนตัว Duckload.us
    สมัครเมื่อ
    Dec 2010
    โพสต์
    115,788
    Thanks
    7
    Thanked 122,193 Times in 54,834 Posts

    Question [ฝรั่ง]-[พิเศษมีเสียงไทย] Fighting with My Family (2019) : สู้ท้าฝันเพื่อครอบครัว แสดงโดย Florence Pugh, Vince Vaughn, Lena Headey, Dwayne The Rock Johnson-Blu-ray.H.264.1080p. [Modified]-[พากย์ไทย บรรยายไทย]

















    เรื่องราวของครอบครัวของ ริคกี้, จูเลีย, เพจ และแซ็ค พวกเขาเลี้ยงชีวิตด้วยการเป็นนักมวยปล้ำในเวทีเล็ก ๆ
    ต่อมาเพจและแซ็ค ได้รับการติดต่อให้ไปทดสอบคัดเลือกเป็นนักมวยปล้ำอาช ีพกับ WWE (World Wresting Entertainment)
    ทั้งคู่จึงคว้าโอกาสสำคัญในครั้งนี้ไว้ เพื่อที่จะพลิกฝันสู่อนาคตอันสดใส แต่อย่างไรก็ตาม
    พี่น้องคู่นี้ก็รู้ดีว่าการก้าวไปเป็นซุปเปอร์สตาร์จ ะส่งผลกระทบต่อความสัมพันธ์ของพวกเขา

    Code:
    Format                                   : Matroska
    Format version                           : Version 4 / Version 2
    File size                                : 4.22 GiB
    Duration                                 : 1 h 48 min
    Overall bit rate                         : 5 564 kb/s
    Encoded date                             : UTC 2020-05-28 08:46:05
    Writing application                      : mkvmerge v46.0.0 ('No Deeper Escape') 64-bit
    Writing library                          : libebml v1.3.10 + libmatroska v1.5.2
    
    Video
    ID                                       : 1
    Format                                   : AVC
    Format/Info                              : Advanced Video Codec
    Format profile                           : [email protected]
    Format settings, CABAC                   : Yes
    Format settings, ReFrames                : 4 frames
    Codec ID                                 : V_MPEG4/ISO/AVC
    Duration                                 : 1 h 48 min
    Bit rate                                 : 4 500 kb/s
    Width                                    : 1 920 pixels
    Height                                   : 800 pixels
    Display aspect ratio                     : 2.40:1
    Frame rate mode                          : Constant
    Frame rate                               : 23.976 (24000/1001) FPS
    Color space                              : YUV
    Chroma subsampling                       : 4:2:0
    Bit depth                                : 8 bits
    Scan type                                : Progressive
    Bits/(Pixel*Frame)                       : 0.122
    Default                                  : Yes
    Forced                                   : No
    Color range                              : Limited
    Color primaries                          : BT.709
    Transfer characteristics                 : BT.709
    Matrix coefficients                      : BT.709
    
    Audio #1
    ID                                       : 2
    Format                                   : AC-3
    Format/Info                              : Audio Coding 3
    Mode extension                           : CM (complete main)
    Format settings, Endianness              : Big
    Codec ID                                 : A_AC3
    Duration                                 : 1 h 48 min
    Bit rate mode                            : Constant
    Bit rate                                 : 448 kb/s
    Channel(s)                               : 2 channels
    Channel positions                        : Front: L R
    Sampling rate                            : 48.0 kHz
    Frame rate                               : 31.250 FPS (1536 spf)
    Compression mode                         : Lossy
    Stream size                              : 348 MiB (8%)
    Language                                 : Thai
    Default                                  : Yes
    Forced                                   : No
    
    Audio #2
    ID                                       : 3
    Format                                   : AC-3
    Format/Info                              : Audio Coding 3
    Mode extension                           : CM (complete main)
    Format settings, Endianness              : Big
    Codec ID                                 : A_AC3
    Duration                                 : 1 h 48 min
    Bit rate mode                            : Constant
    Bit rate                                 : 640 kb/s
    Channel(s)                               : 6 channels
    Channel positions                        : Front: L C R, Side: L R, LFE
    Sampling rate                            : 48.0 kHz
    Frame rate                               : 31.250 FPS (1536 spf)
    Compression mode                         : Lossy
    Stream size                              : 497 MiB (12%)
    Language                                 : English
    Default                                  : No
    Forced                                   : No
    
    Text #1
    ID                                       : 4
    Format                                   : PGS
    Muxing mode                              : zlib
    Codec ID                                 : S_HDMV/PGS
    Codec ID/Info                            : Picture based subtitle format used on BDs/HD-DVDs
    Duration                                 : 1 h 47 min
    Bit rate                                 : 34.2 kb/s
    Count of elements                        : 3494
    Stream size                              : 26.3 MiB (1%)
    Language                                 : Thai
    Default                                  : Yes
    Forced                                   : No
    
    Text #2
    ID                                       : 5
    Format                                   : PGS
    Muxing mode                              : zlib
    Codec ID                                 : S_HDMV/PGS
    Codec ID/Info                            : Picture based subtitle format used on BDs/HD-DVDs
    Duration                                 : 1 h 47 min
    Bit rate                                 : 30.4 kb/s
    Count of elements                        : 3494
    Stream size                              : 23.3 MiB (1%)
    Language                                 : Thai
    Default                                  : No
    Forced                                   : No
    
    Text #3
    ID                                       : 6
    Format                                   : UTF-8
    Codec ID                                 : S_TEXT/UTF8
    Codec ID/Info                            : UTF-8 Plain Text
    Duration                                 : 1 h 48 min
    Bit rate                                 : 118 b/s
    Count of elements                        : 1749
    Stream size                              : 94.1 KiB (0%)
    Language                                 : Thai
    Default                                  : No
    Forced                                   : No
    
    Text #4
    ID                                       : 7
    Format                                   : VobSub
    Muxing mode                              : zlib
    Codec ID                                 : S_VOBSUB
    Codec ID/Info                            : Picture based subtitle format used on DVDs
    Duration                                 : 1 h 44 min
    Bit rate                                 : 14.3 kb/s
    Count of elements                        : 2129
    Stream size                              : 10.7 MiB (0%)
    Language                                 : English
    Default                                  : No
    Forced                                   : No





    Download: cornfile
    http://cornfile.com/uti8bcpn7pi5
    Download: mekafile
    http://www.mekafile.com/dl.php?f=Gd02d2c9Atm4

  2. The Following 2 Users Say Thank You to Duckload.us For This Useful Post:

    gaszolineskywalker (06-08-2020), smakha (06-02-2020)

  3. #2
    Senior Member
    สมัครเมื่อ
    Jul 2013
    โพสต์
    706
    Thanks
    0
    Thanked 0 Times in 0 Posts
    ขอบคุณครับ

  4. #3
    Senior Member
    สมัครเมื่อ
    Jun 2014
    โพสต์
    4,088
    Thanks
    0
    Thanked 0 Times in 0 Posts
    ขอบคุณครับ

  5. #4
    Senior Member
    สมัครเมื่อ
    Oct 2012
    โพสต์
    1,142
    Thanks
    2,077
    Thanked 0 Times in 0 Posts
    ขอบคุณครับ

+ ตอบกลับกระทู้

ข้อมูลกระทู้

Users Browsing this Thread

ในขณะนี้มี 1 ท่านดูกระทู้อยู่. (0 สมาชิกและ 1 ผู้เยี่ยมชม)

     

กฎการโพสต์ข้อความ

  • ท่าน ไม่สามารถ ตั้งกระทู้ใหม่ได้
  • ท่าน ไม่สามารถ ตอบกระทู้ได้
  • ท่าน ไม่สามารถ แนบไฟล์ได้
  • ท่าน ไม่สามารถ แก้ไขข้อความโพสต์ได้
  • BB code สถานะ เปิด
  • Smilies สถานะ เปิด
  • [IMG] สถานะ เปิด
  • HTML สถานะ ปิด