+ ตอบกลับกระทู้
สรุปผลการค้นหา 1 ถึง 4 จากทั้งหมด 4
  1. #1
    Administrators รูปส่วนตัว Duckload.us
    สมัครเมื่อ
    Dec 2010
    โพสต์
    115,788
    Thanks
    7
    Thanked 122,194 Times in 54,834 Posts

    Question [ฝรั่ง]-[พิเศษมีเสียงไทย เข้าชิง BAFTA ,SAG นำหญิง 2017] The Girl on the Train (2016) : ปมหลอน รางมรณะ แสดงโดย Emily Blunt, Haley Bennett, Rebecca Ferguson, Luke Evans-Blu-ray.H.264.1080p. [Modified]-[พากย์ไทย บรรยายไทย]













    ราเชล (เอมิลี บลันท์) ผู้โศกเศร้ากับการหย่าร้างที่เพิ่งเกิดขึ้นหมาดๆ ได้ใช้ช่วงเวลาในการเดินทางประจำวันไปกับการจินตนากา รเกี่ยวกับคู่รัก
    ที่ดูเหมือนจะเพอร์เฟ็กต์ ซึ่งอาศัยอยู่ในบ้านหลังหนึ่งที่รถไฟขบวนที่เธอนั่งแ ล่นผ่านทุกวัน จนกระทั่งเช้าวันหนึ่ง เธอได้เห็นบางสิ่งที่น่าตกตะลึงเกิดขึ้นที่นั่น
    และถูกดึงเข้าไปพัวพันกับเรื่องลึกลับที่เกิดขึ้น สิ่งที่เธอเห็นในวันนั้น จะเปลี่ยนแปลงชีวิตของเธอไปตลอดกาล!!!


    Format : Matroska
    Format version : Version 4 / Version 2
    File size : 4.77 GiB
    Duration : 1 h 52 min
    Overall bit rate : 6 090 kb/s
    Movie name : The.Girl.on.the.Train.2016.1080p.BluRay.x264 [N-Rap]
    Encoded date : UTC 2020-05-28 02:08:09
    Writing application : mkvmerge v46.0.0 ('No Deeper Escape') 64-bit
    Writing library : libebml v1.3.10 + libmatroska v1.5.2

    Video
    ID : 1
    Format : AVC
    Format/Info : Advanced Video Codec
    Format profile : [email protected]
    Format settings, CABAC : Yes
    Format settings, ReFrames : 4 frames
    Codec ID : V_MPEG4/ISO/AVC
    Duration : 1 h 52 min
    Bit rate : 5 199 kb/s
    Width : 1 920 pixels
    Height : 1 036 pixels
    Display aspect ratio : 1.85:1
    Frame rate mode : Constant
    Frame rate : 23.976 FPS
    Color space : YUV
    Chroma subsampling : 4:2:0
    Bit depth : 8 bits
    Scan type : Progressive
    Bits/(Pixel*Frame) : 0.109
    Language : English
    Default : Yes
    Forced : No
    Color range : Limited
    Color primaries : Generic film
    Matrix coefficients : YCgCo

    Audio #1
    ID : 2
    Format : AC-3
    Format/Info : Audio Coding 3
    Mode extension : CM (complete main)
    Format settings, Endianness : Big
    Codec ID : A_AC3
    Duration : 1 h 52 min
    Bit rate mode : Constant
    Bit rate : 224 kb/s
    Channel(s) : 2 channels
    Channel positions : Front: L R
    Sampling rate : 48.0 kHz
    Frame rate : 31.250 FPS (1536 spf)
    Compression mode : Lossy
    Stream size : 180 MiB (4%)
    Language : Thai
    Default : Yes
    Forced : No

    Audio #2
    ID : 3
    Format : AC-3
    Format/Info : Audio Coding 3
    Mode extension : CM (complete main)
    Format settings, Endianness : Big
    Codec ID : A_AC3
    Duration : 1 h 52 min
    Bit rate mode : Constant
    Bit rate : 640 kb/s
    Channel(s) : 6 channels
    Channel positions : Front: L C R, Side: L R, LFE
    Sampling rate : 48.0 kHz
    Frame rate : 31.250 FPS (1536 spf)
    Compression mode : Lossy
    Stream size : 513 MiB (11%)
    Language : English
    Default : No
    Forced : No

    Text #1
    ID : 4
    Format : VobSub
    Muxing mode : zlib
    Codec ID : S_VOBSUB
    Codec ID/Info : Picture based subtitle format used on DVDs
    Duration : 1 h 51 min
    Bit rate : 6 436 b/s
    Count of elements : 1155
    Stream size : 5.12 MiB (0%)
    Language : Thai
    Default : Yes
    Forced : Yes

    Text #2
    ID : 5
    Format : VobSub
    Muxing mode : zlib
    Codec ID : S_VOBSUB
    Codec ID/Info : Picture based subtitle format used on DVDs
    Duration : 1 h 51 min
    Bit rate : 6 436 b/s
    Count of elements : 1155
    Stream size : 5.12 MiB (0%)
    Language : Thai
    Default : No
    Forced : No

    Text #3
    ID : 6
    Format : PGS
    Muxing mode : zlib
    Codec ID : S_HDMV/PGS
    Codec ID/Info : Picture based subtitle format used on BDs/HD-DVDs
    Duration : 1 h 51 min
    Bit rate : 30.5 kb/s
    Count of elements : 2310
    Stream size : 24.3 MiB (0%)
    Language : Thai
    Default : No
    Forced : No

    Text #4
    ID : 7
    Format : UTF-8
    Codec ID : S_TEXT/UTF8
    Codec ID/Info : UTF-8 Plain Text
    Duration : 1 h 44 min
    Bit rate : 44 b/s
    Count of elements : 1169
    Stream size : 33.9 KiB (0%)
    Language : English
    Default : No
    Forced : No






    Download: cornfile
    http://cornfile.com/pxlnwwu1p4pi
    Download: mekafile
    http://www.mekafile.com/dl.php?f=LUe079c9AtfD

  2. The Following User Says Thank You to Duckload.us For This Useful Post:

    Jodz14 (05-31-2020)

  3. #2
    Senior Member
    สมัครเมื่อ
    Jul 2013
    โพสต์
    706
    Thanks
    0
    Thanked 0 Times in 0 Posts
    ขอบคุณครับ

  4. #3
    Senior Member
    สมัครเมื่อ
    Jul 2012
    โพสต์
    6,872
    Thanks
    0
    Thanked 0 Times in 0 Posts
    ขอบคุณมากจ้า

  5. #4
    Senior Member
    สมัครเมื่อ
    Jun 2014
    โพสต์
    4,088
    Thanks
    0
    Thanked 0 Times in 0 Posts
    ขอบคุณครับ

+ ตอบกลับกระทู้

ข้อมูลกระทู้

Users Browsing this Thread

ในขณะนี้มี 1 ท่านดูกระทู้อยู่. (0 สมาชิกและ 1 ผู้เยี่ยมชม)

     

กฎการโพสต์ข้อความ

  • ท่าน ไม่สามารถ ตั้งกระทู้ใหม่ได้
  • ท่าน ไม่สามารถ ตอบกระทู้ได้
  • ท่าน ไม่สามารถ แนบไฟล์ได้
  • ท่าน ไม่สามารถ แก้ไขข้อความโพสต์ได้
  • BB code สถานะ เปิด
  • Smilies สถานะ เปิด
  • [IMG] สถานะ เปิด
  • HTML สถานะ ปิด