+ ตอบกลับกระทู้
สรุปผลการค้นหา 1 ถึง 4 จากทั้งหมด 4
  1. #1
    Administrators รูปส่วนตัว Duckload.us
    สมัครเมื่อ
    Dec 2010
    โพสต์
    115,767
    Thanks
    7
    Thanked 122,115 Times in 54,817 Posts

    Question [จีน]-Ip Man 4 The Finale (2019) : ยิปมัน 4 เดอะ ไฟนอล [เสียงไทยมาสเตอร์ เท่านั้น - ไม่มีบรรยาย ]-WEB-DL.H.264.1080p. [Master]-[พากย์ไทย]



    Ip Man 4: The Finale
    ยิปมัน4 เดอะไฟนอล
    กำหนดฉาย: 23 มกราคม 2020
    แนว: แอ็คชั่น | ชีวิต
    นำแสดง: ดอนนี่ เยน, อู่เยว่, แดนนี่ ชาน, แวนเนส วู, สก็อต แอดคินส์, คริส คอลลินส์,เคนท์ เจิ้ง
    กำกับ: วิลสัน ยิป

    การกลับมาเป็นครั้งที่ 4 ของปรมาจารย์ยิปมัน ครั้งนี้หลังจากที่เขาได้พบกับศิษย์เอกอย่าง บรูซ ลี เขารับหน้าที่เป็นอาจารย์ผู้ฝึกปรือและอบรมจนกระทั่ง เขากำลังจะได้กลายเป็นศิลปินผู้มีวิชาการต่อสู้ที่โด ่งดังไปสู่ระดับโลก หลังจากยิปมันรู้ตัวว่าป่วยระยะสุดท้าย เขาออกเดินทางมาประเทศสหรัฐอเมริกาเพื่อหาโรงเรียนแล ะอนาคตใหม่ให้ลูกชาย แต่สุดท้ายเขากลับต้องมาปกป้องวัฒนธรรมจีนจากเจ้าหน้ าที่ชาวอเมริกัน ที่สนามกีฬาในเมืองซานฟรานซิสโก ผู้ชมกำลังส่งเสียงปรบมือให้กับบรูซลี ที่กำลังโชว์ การสาธิตศิลปะการต่อสู้ของจีน ยิปมันนั่งอยู่ในกลุ่มผู้ชมและชื่นชมลูกศิษย์เบอร์หน ึ่งของเขา การมาอเมริกาครั้งนี้ของยิป มันไม่ใช่แค่มาเยี่ยม บรูซลี แต่คือการหาโรงเรียนให้ลูกชายคนเดียวของเขา เพื่อให้ลูกชายได้เปิดโลกกว้าง ยิปมันรู้ดีว่าช่วงเวลาสงบสุขแบบนี้เป็นแค่ภาพลวงตา เพราะที่นี่ยังมีการเลือกปฏิบัติทางเชื้อชาติที่หยั่ งรากลึก และสถานการณ์จริงมันเลวร้ายยิ่งกว่าที่เขาคิดไว้ เมื่อมาอยู่ไกลบ้านเกิด เขาจึงเป็นห่วงและอยากพูดคุยกับลูกชาย แต่ทุกครั้งที่เขาโทรกลับบ้าน ลูกชายของเขาปฏิเสธที่จะรับสาย ความเหงาที่ยิปมันมี บวกกับอาการไอที่แย่ลงเรื่อย ๆ ของเขา หลังจากเขาถูกวินิจฉัยว่าเขาเป็นโรคมะเร็ง เขาจึงต้องเตรียมตัวสำหรับอนาคต โดยเฉพาะสำหรับลูกชาย


    Format : Matroska
    Format version : Version 2
    File size : 2.81 GiB
    Duration : 1 h 45 min
    Overall bit rate mode : Constant
    Overall bit rate : 3 820 kb/s
    Movie name : Ip Man 4 The Finale ยิปมัน 4 (2019)
    Encoded date : UTC 2020-06-01 04:05:35
    Writing application : DVDFab 11.0.3.1
    Writing library : libebml v1.3.4 + libmatroska v1.4.5

    Video
    ID : 1
    Format : AVC
    Format/Info : Advanced Video Codec
    Format profile : [email protected]
    Format settings : CABAC / 4 Ref Frames
    Format settings, CABAC : Yes
    Format settings, Reference frames : 4 frames
    Format settings, GOP : M=3, N=24
    Codec ID : V_MPEG4/ISO/AVC
    Duration : 1 h 45 min
    Bit rate mode : Constant
    Bit rate : 3 705 kb/s
    Width : 1 920 pixels
    Height : 804 pixels
    Display aspect ratio : 2.40:1
    Frame rate mode : Constant
    Frame rate : 24.000 FPS
    Color space : YUV
    Chroma subsampling : 4:2:0
    Bit depth : 8 bits
    Scan type : Progressive
    Bits/(Pixel*Frame) : 0.100
    Stream size : 2.66 GiB (95%)
    Default : Yes
    Forced : No
    Color range : Limited
    Color primaries : BT.709
    Transfer characteristics : BT.709
    Matrix coefficients : BT.709

    Audio
    ID : 2
    Format : AC-3
    Format/Info : Audio Coding 3
    Commercial name : Dolby Digital
    Codec ID : A_AC3
    Duration : 1 h 45 min
    Bit rate mode : Constant
    Bit rate : 192 kb/s
    Channel(s) : 2 channels
    Channel layout : L R
    Sampling rate : 48.0 kHz
    Frame rate : 31.250 FPS (1536 SPF)
    Bit depth : 16 bits
    Compression mode : Lossy
    Stream size : 145 MiB (5%)
    Service kind : Complete Main
    Default : Yes
    Forced : No



    Download: cornfile
    http://cornfile.com/6stb0x4vyl8a
    Download: mekafile
    http://www.mekafile.com/dl.php?f=6W4370c9KoNK

  2. The Following 2 Users Say Thank You to Duckload.us For This Useful Post:

    bigbang06 (06-02-2020), gaszolineskywalker (06-03-2020)

  3. #2
    Senior Member
    สมัครเมื่อ
    Oct 2012
    โพสต์
    1,142
    Thanks
    2,077
    Thanked 0 Times in 0 Posts
    ขอบคุณครับ

  4. #3
    Senior Member
    สมัครเมื่อ
    Jun 2014
    โพสต์
    4,088
    Thanks
    0
    Thanked 0 Times in 0 Posts
    ขอบคุณครับ

  5. #4
    Senior Member
    สมัครเมื่อ
    Jul 2013
    โพสต์
    696
    Thanks
    0
    Thanked 0 Times in 0 Posts
    ขอบคุณครับ

+ ตอบกลับกระทู้

ข้อมูลกระทู้

Users Browsing this Thread

ในขณะนี้มี 1 ท่านดูกระทู้อยู่. (0 สมาชิกและ 1 ผู้เยี่ยมชม)

     

กฎการโพสต์ข้อความ

  • ท่าน ไม่สามารถ ตั้งกระทู้ใหม่ได้
  • ท่าน ไม่สามารถ ตอบกระทู้ได้
  • ท่าน ไม่สามารถ แนบไฟล์ได้
  • ท่าน ไม่สามารถ แก้ไขข้อความโพสต์ได้
  • BB code สถานะ เปิด
  • Smilies สถานะ เปิด
  • [IMG] สถานะ เปิด
  • HTML สถานะ ปิด